Watch NJPW Best Of The Super Jr 27 2020 12 02 English

Watch NJPW Best Of The Super Jr 27 2020 12 02 Day 7 English 720p DX-TV

Watch NJPW Best Of The Super Jr 27

 

 Watch NJPW Best Of The Super Jr 27

 

[su_expand more_text=”Show More Info” less_text=”Close all Info” height=”50″ text_color=”#000000″ link_color=”#e25f8b” link_style=”button” more_icon=”icon: arrow-down” less_icon=”icon: arrow-up”]
Complete name : NJPW.2020.12.02.Best.Of.The.Super.Jr.27.Day.7.ENGLISH.720p.WEB.h264-LATE.mkv
Format : Matroska
Format version : Version 4
File size : 2.10 GiB
Duration : 2 h 28 min
Overall bit rate : 2 032 kb/s

Watch NJPW Best Of The Super Jr 27

Video
ID : 1
Format : AVC
Duration : 2 h 28 min
Bit rate : 1 904 kb/s
Width : 1 280 pixels
Height : 720 pixels
Display aspect ratio : 16:9
Frame rate mode : Constant
Frame rate : 30.000 FPS
Color space : YUV
Chroma subsampling : 4:2:0
Bit depth : 8 bits
Scan type : Progressive
Bits/(Pixel*Frame) : 0.069
Stream size : 1.97 GiB (94%)

 NJPW Best Of The Super Jr 27

Audio
ID : 2
Format : AAC LC
Format/Info : Advanced Audio
Codec ID : A_AAC-2
Duration : 2 h 28 min
Bit rate : 126 kb/s
Channel(s) : 2 channels
Channel layout : L R
Sampling rate : 44.1 kHz
Frame rate : 43.066 FPS
Compression mode : Lossy
Delay relative to video : -23 ms
Stream size : 133 MiB (6%)
Language : English
Default : Yes
Forced : No

 NJPW Best Of The Super Jr 27

 

[/su_expand]

 

 

Watch online

 

Server 1

 

 

 

 

Watch NJPW Best Of The Super Jr 27

 

 

 

 

Server-2

 

 

 

 

watch now

 

 

 

 

Uploaded By Site DX-TV.com

 

 NJPW Best Of The Super Jr 27

Download Links with premium High Speed   

 

 

 

 

dropapk.to

 

 

 

nitroflare.com

 

 

 

rapidgator.net

 

 

 

uploaded.net

 

 

 

uploadgig.com

 

 

https://dx-tv.com/njpw-english-g1-climax-30-day-8-2020-10-01-720p/

You May Also Like

Leave a Reply

Your email address will not be published. Required fields are marked *

This site uses Akismet to reduce spam. Learn how your comment data is processed.