Watch NJPW 2019 05 01 Road to Wrestling Dontaku 2019 Day 12 japanes WEB LATE full show free mp4

 

 

 

 


 

 

dx-tv.com

 

 

Complete name : NJPW.2019.05.01.Road.to.Wrestling.Dontaku.2019.Day.12.JAPANESE.WEB.h264-LATE.mkv
Format : Matroska
Format version : Version 4
File size : 2.21 GiB
Duration : 2 h 41 min
Overall bit rate : 1 966 kb/s

Video
ID : 1
Format : AVC
Format/Info : Advanced Video Codec
Format settings, Reference : 3 frames
Format settings, GOP : M=1, N=59
Codec ID : V_MPEG4/ISO/AVC
Duration : 2 h 41 min
Bit rate mode : Constant
Bit rate : 1 904 kb/s
Width : 960 pixels
Height : 540 pixels
Display aspect ratio : 16:9
Frame rate mode : Constant
Frame rate : 29.970 (29970/1000) FPS
Original frame rate : 29.970 (30000/1001) FPS
Standard : NTSC
Color space : YUV
Chroma subsampling : 4:2:0
Bit depth : 8 bits
Scan type : Progressive
Bits/(Pixel*Frame) : 0.123
Stream size : 2.10 GiB (95%)
Default : Yes
Forced : No
Color range : Limited

Audio
ID : 2
Format : AAC LC
Format/Info : Advanced Audio
Codec ID : A_AAC-2
Duration : 2 h 41 min
Bit rate : 96.0 kb/s
Channel(s) : 2 channels
Channel layout : L R
Sampling rate : 44.1 kHz
Frame rate : 43.066 FPS (1024 SPF)
Compression mode : Lossy
Delay relative to video : -33 ms
Stream size : 111 MiB (5%)
Language : English
Default : Yes
Forced : No

 

 

 

 

 


 

 

 

 

Watch NJPW 2019 05 01 Road to Wrestling Dontaku 2019 Day 12 japanes WEB LATE full show free mp4

 

 

 

 

Watch online

 

 

Waiting finish converting video

 

 

Server 1

 

 

 

 

 

 

 

 

 

 

 

 

 

 

 

 

 

Uploaded By Site DX-TV.com

 

 

 

open rar file to see this password

 

 

 

 

The password : DX-TV.com

 

 

 

 

Uploaded.net + rapidgator.net + DDL.to + katfile.com

 

 

 

 


https://shrt10.com/M24VxXR

 

 

 

 
https://shrt10.com/dZ5zA
 

 

 

 

Watch NJPW 2019 05 01 Road to Wrestling Dontaku 2019 Day 12 japanes WEB LATE full show free mp4