Watch NJPW 2019 04 30 Road To Wrestling Dontaku 2019 Day 11 English 540p WEB H33B full show free mp4

 

 

 

 


 

 

 

dx-tv.com

 

 

 

 

Complete name : NJPW.2019.04.30.Road.To.Wrestling.Dontaku.2019.Day.11.ENGLISH.540p.WEB.h264-H33B.mp4
Format : MPEG-4
Format profile : Base Media
Codec ID : isom (isom/iso2/avc1/mp41)
File size : 2.26 GiB
Duration : 2 h 41 min
Overall bit rate mode : Constant
Overall bit rate : 2 011 kb/s
Writing application : Lavf57.56.100

Video
ID : 1
Format : AVC
Format/Info : Advanced Video Codec
Format settings, Reference : 3 frames
Format settings, GOP : M=1, N=59
Codec ID : avc1
Codec ID/Info : Advanced Video Coding
Duration : 2 h 41 min
Bit rate mode : Constant
Bit rate : 1 904 kb/s
Width : 960 pixels
Height : 540 pixels
Display aspect ratio : 16:9
Frame rate mode : Variable
Frame rate : 29.970 (30000/1001) FPS
Minimum frame rate : 29.412 FPS
Maximum frame rate : 30.303 FPS
Standard : NTSC
Color space : YUV
Chroma subsampling : 4:2:0
Bit depth : 8 bits
Scan type : Progressive
Bits/(Pixel*Frame) : 0.123
Stream size : 2.14 GiB (95%)
Color range : Limited
Codec configuration box : avcC

Audio
ID : 2
Format : AAC LC
Format/Info : Advanced Audio
Codec ID : mp4a-40-2
Duration : 2 h 41 min
Bit rate mode : Constant
Bit rate : 96.0 kb/s
Channel(s) : 2 channels
Channel layout : L R
Sampling rate : 44.1 kHz
Frame rate : 43.066 FPS (1024 SPF)
Compression mode : Lossy
Stream size : 111 MiB (5%)
Default : Yes
Alternate group : 1

 

 

 

 

 


 

 

 

Watch NJPW 2019 04 30 Road To Wrestling Dontaku 2019 Day 11 English 540p WEB H33B full show free mp4

 

 

 

 

Watch online

 

 

Waiting finish converting video

 

 

Server 1

 

 

 

 

 

 

 

 


 

 


 

 

 

Uploaded By Site DX-TV.com

 

 

 

open rar file to see this password

 

 

 

 

The password : DX-TV.com

 

 

 

 

Uploaded.net + rapidgator.net + DDL.to + katfile.com

 

 

 

 


 

 

 
https://shrt10.com/ifqjqhv

 

 

 
https://shrt10.com/YkJvs
 

 

 

 

 

Watch NJPW 2019 04 30 Road To Wrestling Dontaku 2019 Day 11 English 540p WEB H33B full show free mp4