Watch NJPW 2018 10 17 Road To Power Struggle 2018 Day 2 English WEB H33B

Watch NJPW 2018 10 17 Road To Power Struggle 2018 Day 2 English WEB H33B

 

 

 

 


 

 

dx-tv.com

 

 

 

 

 

 
Complete name : NJPW.2018.10.17.Road.To.Power.Struggle.2018.Day.2.ENGLISH.540p.WEB.h264-H33B.mp4
Format : MPEG-4
Format profile : Base Media
File size : 2.21 GiB
Duration : 2 h 37 min
Overall bit rate mode : Constant
Overall bit rate : 2 011 kb/s
Writing application : Lavf57.56.100

Video
ID : 1
Format : AVC
Format/Info : Advanced Video Codec
Codec ID/Info : Advanced Video Coding
Duration : 2 h 37 min
Bit rate mode : Constant
Bit rate : 1 904 kb/s
Width : 960 pixels
Height : 540 pixels
Display aspect ratio : 16:9
Frame rate mode : Variable
Frame rate : 29.970 (29970/1000) FPS
Minimum frame rate : 29.412 FPS
Maximum frame rate : 30.303 FPS
Original frame rate : 29.970 (30000/1001) FPS
Standard : NTSC
Color space : YUV
Chroma subsampling : 4:2:0
Bit depth : 8 bits
Scan type : Progressive
Bits/(Pixel*Frame) : 0.123
Stream size : 2.09 GiB (95%)
Color range : Limited

Audio
ID : 2
Format : AAC
Format/Info : Advanced Audio Codec
Format profile : LC
Codec ID : mp4a-40-2
Duration : 2 h 37 min
Bit rate mode : Constant
Bit rate : 96.0 kb/s
Channel(s) : 2 channels
Channel positions : Front: L R
Sampling rate : 44.1 kHz
Frame rate : 43.066 FPS (1024 SPF)
Compression mode : Lossy
Stream size : 108 MiB (5%)
Default : Yes
Alternate group : 1

 

 

Watch NJPW 2018 10 17 Road To Power Struggle 2018 Day 2 English WEB H33B

 

 

 

 

Watch online

 

 

Waiting finish converting video

 

 

Server 1

 

 

 

 

 

 

 

 

 

 

 

 

 

 

 

Server 2

 

 

 

 

 

 


 

 

 

 

 

Uploaded By Site DX-TV.com

 

 

 

open rar file to see this password

 

 

The password : DX-TV.com

 

 

Uploaded.net + rapidgator.net

 

 

 

 

 

 

http://shrt10.com/jNTStIYF

 

 

 

 
http://shrt10.com/ydgZY769
 

Watch NJPW 2018 10 17 Road To Power Struggle 2018 Day 2 English WEB H33B

2 comments

  1. Love the site and I am extremely thankful for all you do. Is there any plans on fixing DX-TV in the Release Hub addon through Kodi 17.6?

Comments are closed.