Watch NJPW 2018 10 16 Road to Power Struggle Super Jr Tag League 2018 Japanese Day 1 WEB LATE

Watch NJPW 2018 10 16 Road to Power Struggle Super Jr Tag League 2018 Japanese Day 1 WEB LATE

 

 

 


 

 

dx-tv.com

 

 

 

 

 

Complete name : NJPW.2018.10.16.Road.to.Power.Struggle.Super.Jr.Tag.League.2018.Day.1.JAPANESE.WEB.h264-LATE.mkv
Format : Matroska
Format version : Version 4
File size : 2.22 GiB
Duration : 2 h 41 min
Overall bit rate : 1 966 kb/s
Video
ID : 1
Format : AVC
Format/Info : Advanced Video Codec
Codec ID : V_MPEG4/ISO/AVC
Duration : 2 h 41 min
Bit rate mode : Constant
Bit rate : 1 904 kb/s
Width : 960 pixels
Height : 540 pixels
Display aspect ratio : 16:9
Frame rate mode : Constant
Frame rate : 29.970
Original frame rate : 29.970
Standard : NTSC
Color space : YUV
Chroma subsampling : 4:2:0
Bit depth : 8 bits
Scan type : Progressive
Bits/(Pixel*Frame) : 0.123
Stream size : 2.11 GiB (95%)
Default : Yes
Forced : No
Color range : Limited

Audio
ID : 2
Format : AAC
Format/Info : Advanced Audio Codec
Format profile : LC
Codec ID : A_AAC-2
Duration : 2 h 41 min
Bit rate : 96.0 kb/s
Channel(s) : 2 channels
Channel positions : Front: L R
Sampling rate : 44.1 kHz
Frame rate : 43.066 FPS
Compression mode : Lossy
Delay relative to video : -33 ms
Stream size : 111 MiB (5%)
Language : English
Default : Yes
Forced : No

 

Watch NJPW 2018 10 16 Road to Power Struggle Super Jr Tag League 2018 Japanese Day 1 WEB LATE

 

 

 

 

Watch online

 

 

Waiting finish converting video

 

 

Server 1

 

 

 

 

 

 

 

 

 

 

 

 

 

 

 

Server 2

 

 

 

 

 

 

 


 

 

 

 

 

Uploaded By Site DX-TV.com

 

 

 

open rar file to see this password

 

 

 

 

The password : DX-TV.com

 

 

 

 

Uploaded.net + rapidgator.net

 

 

 

 

 

http://shrt10.com/gepv

 

 

 

 

http://shrt10.com/0PxrYJUG
 

 

 

Watch NJPW 2018 10 16 Road to Power Struggle Super Jr Tag League 2018 Japanese Day 1 WEB LATE