Watch NJPW 2018 09 17 Destruction in Beppu Japanese WEB LATE

Watch NJPW 2018 09 17 Destruction in Beppu Japanese WEB LATE

 

 

 

 


 

 

dx-tv.com

 

 

 

Complete name : NJPW.2018.09.17.Destruction.in.Beppu.JAPANESE.WEB.h264-LATE.mkv
Format : Matroska
Format version : Version 4
File size : 2.91 GiB
Duration : 3 h 34 min
Overall bit rate : 1 948 kb/s

Video
ID : 1
Format : AVC
Format/Info : Advanced Video Codec
Codec ID : V_MPEG4/ISO/AVC
Duration : 3 h 34 min
Bit rate mode : Constant
Bit rate : 1 904 kb/s
Width : 960 pixels
Height : 540 pixels
Display aspect ratio : 16:9
Frame rate mode : Constant
Frame rate : 29.970
Original frame rate : 29.970
Standard : NTSC
Color space : YUV
Chroma subsampling : 4:2:0
Bit depth : 8 bits
Scan type : Progressive
Bits/(Pixel*Frame) : 0.123
Stream size : 2.76 GiB (95%)
Default : Yes
Forced : No
Color range : Limited

Audio
ID : 2
Format : AAC
Format/Info : Advanced Audio Codec
Format profile : LC
Codec ID : A_AAC-2
Duration : 3 h 34 min
Bit rate : 96.0 kb/s
Channel(s) : 2 channels
Channel positions : Front: L R
Sampling rate : 44.1 kHz
Frame rate : 43.066 FPS
Compression mode : Lossy
Delay relative to video : -33 ms
Stream size : 147 MiB (5%)
Language : English
Default : Yes
Forced : No

 

 

 

Watch NJPW 2018 09 17 Destruction in Beppu Japanese WEB LATE

 

 

 

 

Watch online

 

 

Waiting finish converting video

 

 

Server 1

 

 

 

 

 

 

 

 

 

 

 

 

 

 

 

Server 2

 

 

 

 

 

 

 


 

 

 

 

 

Uploaded By Site DX-TV.com

 

 

 

open rar file to see this password

 

 

 

 

The password : DX-TV.com

 

 

 

 

 

 

Uploaded.net + rapidgator.net

 

 

 

 

http://shrt10.com/nCvyQowh

 

 

 

 
http://shrt10.com/WvpxGoE

 

 

 

 

 

Watch NJPW 2018 09 17 Destruction in Beppu Japanese WEB LATE

Leave a Reply

This site uses Akismet to reduce spam. Learn how your comment data is processed.