Watch Nature Boy Ric Flair The Definitive Collection 2008 DVDRip x264 DX-TV

Watch Nature Boy Ric Flair The Definitive Collection 2008 DVDRip x264 DX-TV

 

 

 

 

 

wwe

 

 

 

 

 

Complete name : Nature Boy Ric Flair The Definitive Collection 2008 DVDRip x264 DX-TV.mp4
Format : MPEG-4
Codec ID : mp42
File size : 1.72 GiB
Duration : 2h 14mn
Overall bit rate : 1 824 Kbps
Video
ID : 1
Duration : 2h 14mn
Bit rate mode : Variable
Bit rate : 1 498 Kbps
Width : 720 pixels
Height : 480 pixels
Display aspect ratio : 3:2
Frame rate mode : Constant
Frame rate : 29.970 fps
Standard : NTSC
Color space : YUV
Chroma subsampling : 4:2:0
Bit depth : 8 bits
Scan type : Progressive
Bits/(Pixel*Frame) : 0.145
Stream size : 1.41 GiB (82%)
Language : English

Codec ID : 40
Duration : 2h 14mn
Bit rate mode : Constant
Bit rate : 319 Kbps
Channel(s) : 6 channels
Sampling rate : 48.0 KHz
Compression mode : Lossy
Stream size : 308 MiB (18%)
Language : English

 

 

 

 

 

 
Complete name : Nature Boy Ric Flair The Definitive Collection 2008 DVDRip x264 DX-TV.mp4
Format : MPEG-4
Codec ID : mp42
File size : 2.02 GiB
Duration : 2h 50mn
Overall bit rate : 1 698 Kbps
Video
ID : 1
Duration : 2h 50mn
Bit rate mode : Variable
Bit rate : 1 499 Kbps
Width : 720 pixels
Height : 480 pixels
Display aspect ratio : 3:2
Frame rate mode : Constant
Frame rate : 29.970 fps
Standard : NTSC
Color space : YUV
Chroma subsampling : 4:2:0
Bit depth : 8 bits
Scan type : Progressive
Bits/(Pixel*Frame) : 0.145
Stream size : 1.78 GiB (88%)
Language : English

Codec ID : 40
Duration : 2h 50mn
Bit rate mode : Constant
Bit rate : 192 Kbps
Channel(s) : 2 channels
Channel positions : Front: L R
Sampling rate : 48.0 KHz
Compression mode : Lossy
Stream size : 234 MiB (11%)
Language : English

 

 

 

 

 

 

 

Watch Nature Boy Ric Flair The Definitive Collection 2008 DVDRip x264 DX-TV

 

 

 

 

Watch online

 

 

Waiting finish converting video

 

 

Server 1

 

 

 

 

 

 

 

 

 

 

 

 

 

 

 

 

 

 

 

 

 

 

 

 

Server 2

 

 

 

 

 


 

 


 


 

 

Uploaded By Site DX-TV.com

 

 

 

open rar file to see this password

 

 

 

 

The password is : DX-TV.com

 

 

 

 

 

 

 

 

Uploaded.net + rapidgator.net

 

 

 

 

 

 

 

http://shrt10.com/Q5uL

 

http://shrt10.com/jbcRJJ

 

http://shrt10.com/YgcvsmqW

 

http://shrt10.com/ekIvG

 

 

 

 

 

 

 

 

 

 

 

Watch Nature Boy Ric Flair The Definitive Collection 2008 DVDRip x264 DX-TV