Watch MMA LFA 66 2019/05/11 720p Totanon free full show online

 

 

 

 


 

 

dx-tv.com

 

 

 

 

Complete name : LFA.66.Neal.vs.Diamond.720p.Totanon.mp4
Format : MPEG-4
Format profile : Base Media
Codec ID : isom (isom/iso2/avc1/mp41)
File size : 2.81 GiB
Duration : 3 h 1 min
Overall bit rate : 2 218 kb/s
Writing application : eRightSoft(C)

Video
ID : 1
Format : AVC
Format/Info : Advanced Video Codec
Format settings, : 4 frames
Codec ID : avc1
Codec ID/Info : Advanced Video Coding
Duration : 3 h 1 min
Bit rate : 2 045 kb/s
Width : 1 280 pixels
Height : 720 pixels
Display aspect ratio : 16:9
Frame rate mode : Variable
Frame rate : 31.987 FPS
Minimum frame rate : 0.585 FPS
Maximum frame rate : 32.000 FPS
Color space : YUV
Chroma subsampling : 4:2:0
Bit depth : 8 bits
Scan type : Progressive
Bits/(Pixel*Frame) : 0.069
Stream size : 2.59 GiB (92%)
Codec configuration box : avcC

Audio
ID : 2
Format : AAC LC
Format/Info : Advanced Audio Codec Low Complexity
Codec ID : mp4a-40-2
Duration : 3 h 1 min
Bit rate mode : Constant
Bit rate : 163 kb/s
Channel(s) : 2 channels
Channel layout : L R
Sampling rate : 48.0 kHz
Frame rate : 46.875 FPS (1024 SPF)
Compression mode : Lossy
Stream size : 212 MiB (7%)
Default : Yes
Alternate group : 1

 

 

 

 

 


 

 

Watch MMA LFA 66 2019/05/11 720p Totanon free full show online

 

 

 

 

Watch online

 

 

Waiting finish converting video

 

 

Server 1

 

 

 

 

 

 


 

 

 

 


 

Server 2

 

 

 

 

 


 

 

 


 

 

Uploaded By Site DX-TV.com

 

 

 

open rar file to see this password

 

 

 

 

The password : DX-TV.com

 

 

 


 

 

 
https://shrt10.com/9T0DXfjz
 

 
https://shrt10.com/LCo8
 

 

https://shrt10.com/zIUPDBt

 

 

 

Watch MMA LFA 66 2019/05/11 720p Totanon free full show online