Watch MLW Fusion Episode 21 1080p mp4

Watch MLW Fusion Episode 21 1080p mp4

 

 

 

 


 

 

dx-tv.com

 

 

 

 

 

Complete name : MLW Fusion Episode 21 1080p mp4
Format : MPEG-4
Format profile : Base Media
File size : 1.43 GiB
Duration : 49 min 32 s
Overall bit rate : 4 123 kb/s
Performer : MLW
Recorded date : 2018

Video
ID : 1
Format : AVC
Format/Info : Advanced Video Codec
Codec ID/Info : Advanced Video Coding
Duration : 49 min 32 s
Bit rate : 3 989 kb/s
Width : 1 920 pixels
Height : 1 080 pixels
Display aspect ratio : 16:9
Frame rate mode : Constant
Frame rate : 30.000 FPS
Color space : YUV
Chroma subsampling : 4:2:0
Bit depth : 8 bits
Scan type : Progressive
Bits/(Pixel*Frame) : 0.064
Stream size : 1.38 GiB (97%)
Color range : Limited
Color primaries : BT.709
Transfer characteristics : BT.709
Matrix coefficients : BT.709

Audio
ID : 2
Format : AAC
Format/Info : Advanced Audio Codec
Format profile : LC
Codec ID : mp4a-40-2
Duration : 49 min 32 s
Bit rate mode : Constant
Bit rate : 126 kb/s
Channel(s) : 2 channels
Channel positions : Front: L R
Sampling rate : 44.1 kHz
Frame rate : 43.066 FPS (1024 SPF)
Compression mode : Lossy
Stream size : 44.5 MiB (3%)
Language : English
Default : Yes
Alternate group : 1

 

 

 

 

 

 

 

Watch MLW Fusion Episode 21 1080p mp4

 

 

 

 

Watch online

 

 

Waiting finish converting video

 

 

Server 1

 

 

 

 

 

 

 

 

 

 

 

 

 

 

 

Server 2

 

 

 

 

 

 

 

 

 


 

 

 

 

Uploaded By Site DX-TV.com

 

 

 

open rar file to see this password

 

 

 

 

The password : DX-TV.com

 

 

 

 

 

 

Uploaded.net + rapidgator.net

 

 

 

 

 

 

http://shrt10.com/y3hwbeGf

 

 

 

 

 

http://shrt10.com/zXlsL

 

 

 

 

 

 

 

 

 

Watch MLW Fusion Episode 21 1080p mp4

Leave a Reply

This site uses Akismet to reduce spam. Learn how your comment data is processed.

Support HVIPS

Please Disable Ad-Block To View This site. just help us to continue this work