Watch MLW Fusion EP 27 2018 10 20 1080p WEB KANiE

Watch MLW Fusion EP 27 2018 10 20 1080p WEB KANiE

 

 

 

 


 

 

 

dx-tv.com

 

 

 

 

Complete name : MLW.Fusion.E27.2018.10.20.1080p.WEB-DL.h264-KANiE.mp4
Format : MPEG-4
Format profile : Base Media
File size : 1.75 GiB
Duration : 55 min 59 s
Overall bit rate : 4 486 kb/s
Writing application : Lavf56.40.101

Video
ID : 1
Format : AVC
Format/Info : Advanced Video Codec
Codec ID/Info : Advanced Video Coding
Duration : 55 min 59 s
Bit rate : 4 350 kb/s
Width : 1 920 pixels
Height : 1 080 pixels
Display aspect ratio : 16:9
Frame rate mode : Constant
Frame rate : 30.000 FPS
Color space : YUV
Chroma subsampling : 4:2:0
Bit depth : 8 bits
Scan type : Progressive
Bits/(Pixel*Frame) : 0.070
Stream size : 1.70 GiB (97%)
Color range : Limited
Color primaries : BT.709
Transfer characteristics : BT.709
Matrix coefficients : BT.709

Audio
ID : 2
Format : AAC
Format/Info : Advanced Audio Codec
Format profile : LC
Codec ID : mp4a-40-2
Duration : 55 min 59 s
Bit rate mode : Constant
Bit rate : 128 kb/s
Channel(s) : 2 channels
Channel positions : Front: L R
Sampling rate : 44.1 kHz
Frame rate : 43.066 FPS (1024 SPF)
Compression mode : Lossy
Stream size : 51.3 MiB (3%)
Language : English
Default : Yes
Alternate group : 1

 

 

Watch MLW Fusion EP 27 2018 10 20 1080p WEB KANiE

 

 

 

 

Watch online

 

 

Waiting finish converting video

 

 

Server 1

 

 

 

 

 

 

 

 

 

 

 

 

 

 

 

Server 2

 

 

 

 

 

 


 

 

 

 

 

Uploaded By Site DX-TV.com

 

 

 

open rar file to see this password

 

 

 

 

The password : DX-TV.com

 

 

 

 

Uploaded.net + rapidgator.net

 

 

 

 

 

 
http://shrt10.com/goTdZ

 

 

 
http://shrt10.com/YZZM
 

 

 

 

 

 

Watch MLW Fusion EP 27 2018 10 20 1080p WEB KANiE