Watch MLW Fusion 119 720p Free Online

Watch MLW Fusion 119 Hammerstone vs Krugger 720p HDTV NWCHD DX-TV

Watch MLW Fusion 119

 Watch MLW Fusion 119

 

Download Links with premium High Speed   

 

 

dropapk.to

http://shrt10.com/pd0tdM

 

 

nitroflare.com

http://shrt10.com/bn3Q8Dqt

 

 

rapidgator.net

http://shrt10.com/tI29eb

 

 

uploaded.net

http://shrt10.com/c5gvlL0J

 

 

 

Watch online

 

Server 1

 

 

 

 

watch now

 

 

 

 

Server-2

 

 

 

 

watch now

 

 

Uploaded By Site DX-TV.com

 

Complete name : MLW.Fusion.119.Hammerstone.vs.Krugger.720p.HDTV.x264-NWCHD.mp4
Format : MPEG-4
Format profile : Base Media
Codec ID : mp42
File size : 1.66 GiB
Duration : 50 min 35 s
Overall bit rate mode : Variable
Overall bit rate : 4 685 kb/s

Watch MLW Fusion

Video
ID : 1
Format : AVC
Format/Info : Advanced Video
Duration : 50 min 35 s
Bit rate : 4 500 kb/s
Width : 1 280 pixels
Height : 720 pixels
Display aspect ratio : 16:9
Frame rate mode : Constant
Frame rate : 29.970 (30000/1001) FPS
Color space : YUV
Chroma subsampling : 4:2:0
Bit depth : 8 bits
Scan type : Progressive
Bits/(Pixel*Frame) : 0.163
Stream size : 1.59 GiB (96%)
Color range : Limited
Color primaries : BT.709
Transfer characteristics : BT.709
Matrix coefficients : BT.709
Codec configuration box : avc

Watch MLW Fusion

Audio
ID : 2
Format : AAC LC
Format/Info : Advanced Audio
Codec ID : mp4a-40-2
Duration : 50 min 35 s
Bit rate mode : Variable
Bit rate : 192 kb/s
Channel(s) : 2 channels
Channel layout : L R
Sampling rate : 48.0 kHz
Frame rate : 46.875 FPS (1024 SPF)
Compression mode : Lossy
Stream size : 69.6 MiB (4%)
Title : Stereo / Stereo
Language : English
Default : Yes
Alternate group : 1

Watch MLW Fusion

Audio
ID : 2
Format : AAC LC
Format/Info : Advanced Audio
Codec ID : mp4a-40-2
Duration : 50 min 35 s
Bit rate mode : Variable
Bit rate : 192 kb/s
Channel(s) : 2 channels
Channel layout : L R
Sampling rate : 48.0 kHz
Frame rate : 46.875 FPS (1024 SPF)
Compression mode : Lossy
Stream size : 69.6 MiB (4%)
Title : Stereo / Stereo
Language : English
Default : Yes
Alternate group : 1

https://dx-tv.com/

You May Also Like

Leave a Reply

Your email address will not be published. Required fields are marked *

This site uses Akismet to reduce spam. Learn how your comment data is processed.