Watch Miz-Mrs S01E12 2019 05 07 HDTV NWCHD free full show online

Miz,Mrs,

Watch Miz-Mrs S01E12 2019 05 07 HDTV NWCHD free full show online

 

 

 

 


 

 

dx-tv.com

 

 

 

 

 
Complete name : Miz.&.Mrs.S01E12.It’s.A.Miz-tery.HDTV.x264-NWCHD.mp4
Format : MPEG-4
Format profile : Base Media / Version 2
Codec ID : mp42 (isom/iso2/avc1/mp41)
File size : 244 MiB
Duration : 21 min 22 s
Overall bit rate mode : Variable
Overall bit rate : 1 595 kb/s
Encoded date : UTC 2019-05-08 02:41:27
Tagged date : UTC 2019-05-08 02:41:27

Video
ID : 1
Format : AVC
Format/Info : Advanced Video Codec
Format settings, Reference : 4 frames
Codec ID : avc1
Codec ID/Info : Advanced Video Coding
Duration : 21 min 22 s
Bit rate : 1 400 kb/s
Width : 704 pixels
Height : 400 pixels
Display aspect ratio : 16:9
Frame rate mode : Constant
Frame rate : 29.970 (30000/1001) FPS
Color space : YUV
Chroma subsampling : 4:2:0
Bit depth : 8 bits
Scan type : Progressive
Bits/(Pixel*Frame) : 0.166
Stream size : 213 MiB (88%)
Encoded date : UTC 2019-05-08 02:41:27
Tagged date : UTC 2019-05-08 02:41:27
Color range : Limited
Color primaries : BT.709
Transfer characteristics : BT.709
Matrix coefficients : BT.709
Codec configuration box : avcC

Audio
ID : 2
Format : AAC LC
Format/Info : Advanced Audio Codec Low Complexity
Codec ID : mp4a-40-2
Duration : 21 min 22 s
Bit rate mode : Variable
Bit rate : 192 kb/s
Channel(s) : 2 channels
Channel layout : L R
Sampling rate : 48.0 kHz
Frame rate : 46.875 FPS (1024 SPF)
Compression mode : Lossy
Stream size : 29.4 MiB (12%)
Title : Stereo / Stereo
Default : Yes
Alternate group : 1
Encoded date : UTC 2019-05-08 02:41:27
Tagged date : UTC 2019-05-08 02:41:27

 

 

 

 

 


 

 

Watch Miz-Mrs S01E12 2019 05 07 HDTV NWCHD free full show online

 

 

 

 

Watch online

 

 

Waiting finish converting video

 

 

Server 1

 

 

 

 


 

 

 


 


 

 

Uploaded By Site DX-TV.com

 

 

 

open rar file to see this password

 

 

 

 

The password : DX-TV.com

 

 

 

 

Uploaded.net + rapidgator.net + katfile.com + bitster.cz

 

 

 

 


 

 

https://shrt10.com/BLfCbG
 

 
https://shrt10.com/r2okAIOK
 

 
https://shrt10.com/Y6uEJkDB
 

 
https://shrt10.com/bCsRF
 

 

 

 

 

 

 

Watch Miz-Mrs S01E12 2019 05 07 HDTV NWCHD free full show online

Author: snaw90

Leave a Reply

Your email address will not be published. Required fields are marked *