Watch MCW Vendetta 2018 720p WEB 4FuN

Watch MCW Vendetta 2018 720p WEB 4FuN

 

 

 

 


 

 

 

dx-tv.com

 

 

 

 

Complete name : MCW.Vendetta.2018.720p.WEB.H264-4FuN.mp4
Format : MPEG-4
Format profile : Base Media
File size : 2.69 GiB
Duration : 2 h 19 min
Overall bit rate mode : Variable
Overall bit rate : 2 755 kb/s
Encoded date : UTC 2018-01-26 17:04:33
Tagged date : UTC 2018-01-26 17:04:33

Video
ID : 1
Format : AVC
Format/Info : Advanced Video Codec
Codec ID/Info : Advanced Video Coding
Duration : 2 h 19 min
Bit rate : 2 500 kb/s
Width : 1 280 pixels
Height : 720 pixels
Display aspect ratio : 16:9
Frame rate mode : Constant
Frame rate : 59.940
Color space : YUV
Chroma subsampling : 4:2:0
Bit depth : 8 bits
Scan type : Progressive
Bits/(Pixel*Frame) : 0.045
Stream size : 2.43 GiB (90%)
Encoded date : UTC 2018-01-26 17:04:33
Tagged date : UTC 2018-01-26 17:04:33
Color range : Limited
Color primaries : BT.709
Transfer characteristics : BT.709
Matrix coefficients : BT.709

Audio
ID : 2
Format : AAC
Format/Info : Advanced Audio Codec
Format profile : LC
Codec ID : mp4a-40-2
Duration : 2 h 19 min
Bit rate mode : Variable
Bit rate : 256 kb/s
Channel(s) : 2 channels
Channel positions : Front: L R
Sampling rate : 48.0 kHz
Frame rate : 46.875 FPS (1024 SPF)
Compression mode : Lossy
Stream size : 256 MiB (9%)
Encoded date : UTC 2018-01-26 17:04:33
Tagged date : UTC 2018-01-26 17:04:33

 

Watch MCW Vendetta 2018 720p WEB 4FuN

 

 

 

 

Watch online

 

 

Waiting finish converting video

 

 

Server 1

 

 

 

 

 

 

 

 

 

 

 

 

 

 

 

Server 2

 

 

 

 

 

 

 

 

 

 

 

 

 

Uploaded By Site DX-TV.com

 

 

open rar file to see this password

 

 

The password : DX-TV.com

 

 

Uploaded.net + rapidgator.net

 

 

 

 

 

http://shrt10.com/FFttt4J

 

 

 
http://shrt10.com/CpsW
 

 

 

 

 

Watch MCW Vendetta 2018 720p WEB 4FuN