Watch MCW 2019 06 08 Tensions Rising 720p

Watch MCW 2019 06 08 Tensions Rising 720p

 

 

Watch MCW
Watch MCW

 

 

 

 

 

dx-tv.com

 

 

 

 

Watch MCW 2019 06 08 Tensions Rising 720p

 

 

 

 

 

Complete name : MCW.2019.06.08.Tensions.Rising.720p.WEB.h264-NCMP.mp4
Format : MPEG-4
File size : 2.76 GiB
Duration : 2 h 18 min
Overall bit rate mode : Variable
Overall bit rate : 2 864 kb/s

Video
ID : 1
Format : AVC
Format/Info : Advanced Video Codec
Codec ID : avc1
Codec ID/Info : Advanced Video Coding
Duration : 2 h 18 min
Bit rate : 2 723 kb/s
Width : 1 280 pixels
Height : 720 pixels
Display aspect ratio : 16:9
Frame rate mode : Constant
Frame rate : 25.000 FPS
Color space : YUV
Chroma subsampling : 4:2:0
Bit depth : 8 bits
Scan type : Progressive
Bits/(Pixel*Frame) : 0.118
Stream size : 2.63 GiB (95%)
Color range : Limited
Color primaries : BT.709
Transfer characteristics : BT.709
Matrix coefficients : BT.709
Codec configuration box : avcC

Audio
ID : 2
Codec ID : mp4a-40-2
Duration : 2 h 18 min
Bit rate mode : Variable
Bit rate : 137 kb/s
Channel(s) : 2 channels
Channel layout : L R
Sampling rate : 48.0 kHz
Frame rate : 46.875 FPS (1024 SPF)
Compression mode : Lossy
Stream size : 135 MiB (5%)

 

 

 

 

 

 

Watch online

 

 

Waiting finish converting video

 

 

Server 1

 

 

 

 

 

 

 

 

 

 

 

 

 

 

Server 2

 

 

 

 

 

 

 

 

 

 

 

 

 

 

 

Uploaded By Site DX-TV.com

 

 

 

https://shrt10.com
https://shrt10.com

 

 

 


 

 

 


 

 

Watch MCW 2019 06 08 Tensions Rising 720p

 

 

 

 

bitster.cz

 

 

 

multiup.org

 

 

 

nitroflare.com

 

 

 

rapidgator.net

 

 

 

uploaded.net

 

 

 

uploadgig.com

 

 

 

 

 

 

Leave a Reply

Your email address will not be published. Required fields are marked *

WhatsApp chat
%d bloggers like this: