Watch Masters of Ring 1 2019 09 21

Watch Masters of Ring 1 2019 09 21 720p DX-TV

 

 

 

 

 

 

dx-tv.com

 

 

 

 

Watch Masters of Ring 1 2019 09 21

 

 

 

 

 

Complete name : C:\DX\WWE\Downloading\Masters.of.Ring.1.2019.09.21.720p.WEB.h264-iNDYHEEL.mp4
Format : MPEG-4
Format profile : Base Media
Codec ID : isom (isom/iso2/avc1/mp41)
File size : 2.06 GiB
Duration : 2 h 18 min
Overall bit rate mode : Variable
Overall bit rate : 2 126 kb/s
Writing application : Lavf58.32.104

Video
ID : 1
Format : AVC
Duration : 2 h 18 min
Bit rate : 2 023 kb/s
Nominal bit rate : 2 300 kb/s
Width : 1 280 pixels
Height : 720 pixels
Display aspect ratio : 16:9
Frame rate mode : Constant
Frame rate : 25.000 FPS
Color space : YUV
Chroma subsampling : 4:2:0
Bit depth : 8 bits
Scan type : Progressive
Bits/(Pixel*Frame) : 0.088
Stream size : 1.96 GiB (95%)
Writing library : x264 core 152

Audio
ID : 2
Format : AAC LC
Format/Info : Advanced Audio Codec Low Complexity
Codec ID : mp4a-40-2
Duration : 2 h 18 min
Bit rate mode : Variable
Bit rate : 96.0 kb/s
Maximum bit rate : 102 kb/s
Channel(s) : 2 channels
Channel layout : L R
Sampling rate : 48.0 kHz
Frame rate : 46.875 FPS (1024 SPF)
Compression mode : Lossy
Stream size : 95.5 MiB (5%)
Default : Yes
Alternate group : 1

 

 

 

 

 

 

Watch online

 

 

Waiting finish converting video

 

 

Server 1

 

 

 

 

 

 

 

 

 

 

 

 

 

Server 2

 

 

 

 

 

 

 

 

 

 

 

 

 

 

 

Uploaded By Site DX-TV.com

 

 

 

 

 

Watch Masters of Ring 1 2019 09 21

 

 

 

 

 

 

Recommended For Free

 

 

 

 

earn4files.com

 

 

 

 

clicknupload.org

 

 

 

 

 

Download with high speed with Premium account

 

 

 

 

nitroflare.com

 

 

 

rapidgator.net

 

 

 

uploaded.net

 

 

 

 

 

 

 

 

 

Leave a Reply

Your email address will not be published. Required fields are marked *

This site uses Akismet to reduce spam. Learn how your comment data is processed.