Watch Lucha Underground S04E15 1080p WEB HEEL

Watch Lucha Underground S04E15 1080p WEB HEEL

 

 

 

 


 

 

 

dx-tv.com

 

 

 

 

 

 

Complete name : Lucha.Underground.S04E15.1080p.WEB.h264-HEEL.mp4
Format : MPEG-4
Format profile : Base Media
File size : 1.39 GiB
Duration : 44 min 34 s
Overall bit rate mode : Variable
Overall bit rate : 4 448 kb/s
Movie name : Lucha
Law rating : TV-14
Writing application : Lavf58.2.103

Video
ID : 1
Format : AVC
Format/Info : Advanced Video Codec
Codec ID/Info : Advanced Video Coding
Duration : 44 min 34 s
Bit rate mode : Constant
Bit rate : 4 300 kb/s
Width : 1 920 pixels
Height : 1 080 pixels
Display aspect ratio : 16:9
Frame rate mode : Variable
Frame rate : 29.970
Minimum frame rate : 28.364 FPS
Maximum frame rate : 30.030 FPS
Color space : YUV
Chroma subsampling : 4:2:0
Bit depth : 8 bits
Scan type : Progressive
Bits/(Pixel*Frame) : 0.069
Stream size : 1.34 GiB (97%)

Audio
ID : 2
Format : AAC
Format/Info : Advanced Audio Codec
Format profile : LC
Codec ID : mp4a-40-2
Duration : 44 min 34 s
Bit rate mode : Variable
Bit rate : 126 kb/s
Maximum bit rate : 136 kb/s
Channel(s) : 2 channels
Channel positions : Front: L R
Sampling rate : 44.1 kHz
Frame rate : 43.066 FPS
Compression mode : Lossy
Stream size : 40.1 MiB (3%)

 

 

 

 

 

 

Watch Lucha Underground S04E15 1080p WEB HEEL

 

 

 

 

Watch online

 

 

Waiting finish converting video

 

 

Server 1

 

 

 

 

 

 

 

 

 

 

 

 

 

 

 

 

Server 2

 

 

 

 

 


 

 

 

 

 

 

 

 

Uploaded By Site DX-TV.com

 

 

 

open rar file to see this password

 

 

 

 

The password : DX-TV.com

 

 

 

 

Uploaded.net + rapidgator.net

 

 

 

 

 

http://shrt10.com/RfBuD63X

 

 

 

 

 

 
http://shrt10.com/43Us31
 

 

 

 

 

 

 

Watch Lucha Underground S04E15 1080p WEB HEEL