Watch Lucha Underground S04E13 The Circle Of Life HDTV NWCHD /720p

Watch Lucha Underground S04E13 The Circle Of Life HDTV NWCHD /720p

 

 

 

 


 

dx-tv.com

 

 

 

 

Complete name : Lucha.Underground.S04E13.The.Circle.Of.Life.HDTV.x264-NWCHD.mp4
Format : MPEG-4
File size : 507 MiB
Duration : 44 min 23 s
Overall bit rate mode : Variable
Overall bit rate : 1 596 kb/s
Encoded date : UTC 2018-09-06 02:45:26
Tagged date : UTC 2018-09-06 02:45:26

Video
ID : 1
Format : AVC
Format/Info : Advanced Video Codec
Format profile : Main@L4
Codec ID : avc1
Codec ID/Info : Advanced Video Coding
Duration : 44 min 23 s
Bit rate : 1 400 kb/s
Width : 704 pixels
Height : 400 pixels
Display aspect ratio : 16:9
Frame rate mode : Constant
Frame rate : 29.970
Color space : YUV
Chroma subsampling : 4:2:0
Bit depth : 8 bits
Scan type : Progressive
Bits/(Pixel*Frame) : 0.166
Stream size : 444 MiB (88%)
Encoded date : UTC 2018-09-06 02:45:26
Tagged date : UTC 2018-09-06 02:45:26
Color range : Limited
Color primaries : BT.709
Transfer characteristics : BT.709
Matrix coefficients : BT.709

Audio
ID : 2
Format : AAC
Format/Info : Advanced Audio Codec
Format profile : LC
Codec ID : mp4a-40-2
Duration : 44 min 23 s
Bit rate mode : Variable
Bit rate : 192 kb/s
Channel(s) : 2 channels
Channel positions : Front: L R
Sampling rate : 48.0 kHz
Frame rate : 46.875 FPS
Compression mode : Lossy
Stream size : 60.9 MiB (12%)
Title : Stereo / Stereo
Default : Yes
Alternate group : 1
Encoded date : UTC 2018-09-06 02:45:26
Tagged date : UTC 2018-09-06 02:45:26

 

 

 

 

 

 

 

Name – Lucha.Underground.S04E13.The.Circle.Of.Life.720p.HDTV.x264-NWCHD
Released – 09.05.2018
Aired – 09.05.2018
Size – 1.45 GB
Source – EL REY HD
Container – MP4
Resolution – 1280 x 720 (16:9) @ 29.970 FPS
Video – x264 @ 4500 KBPS
Audio – AAC @ 192 KBPS
Length – 00:44:23 MIN

Watch Lucha Underground S04E13 The Circle Of Life HDTV NWCHD /720p

 

 

 

 

Watch online

 

 

Waiting finish converting video

 

 

Server 1

 

 

 

 

 

 

 

 

 

 

 

 

 

 

 

 

 

 

 

 

Server 2

 

 

 

 

 


 

 

 

 

 

 

Uploaded By Site DX-TV.com

 

 

 

open rar file to see this password

 

 

 

 

The password : DX-TV.com

 

 

 

 

Uploaded.net + rapidgator.net

 

 

 

 

 

 

 

http://shrt10.com/ZhAcyB

 

 

http://shrt10.com/naFZ

 

 

http://shrt10.com/qTjw

 

 

 

http://shrt10.com/uPZOs

 

 

 

 

 

 

 

 

Watch Lucha Underground S04E13 The Circle Of Life HDTV NWCHD /720p