Watch Lucha Underground S04E12 WEB HEEL /1080p mp4

Watch Lucha Underground S04E12 WEB HEEL /1080p mp4

 

 

 

 


 

 

 

dx-tv.com

 

 

 

 

 

 

Complete name : Lucha.Underground.S04E12.WEB.h264-HEEL.mp4
Format : MPEG-4
Format profile : Base Media
File size : 623 MiB
Duration : 44 min 55 s
Overall bit rate mode : Variable
Overall bit rate : 1 938 kb/s
Movie name : Lucha
Law rating : TV-14

Video
ID : 1
Format : AVC
Format/Info : Advanced Video Codec
Codec ID/Info : Advanced Video Coding
Duration : 44 min 55 s
Bit rate mode : Constant
Bit rate : 1 800 kb/s
Width : 704 pixels
Height : 396 pixels
Display aspect ratio : 16:9
Frame rate mode : Variable
Frame rate : 29.970
Minimum frame rate : 18.738 FPS
Maximum frame rate : 30.090 FPS
Color space : YUV
Chroma subsampling : 4:2:0
Bit depth : 8 bits
Scan type : Progressive
Bits/(Pixel*Frame) : 0.215
Stream size : 580 MiB (93%)

Audio
ID : 2
Format : AAC
Format/Info : Advanced Audio Codec
Format profile : LC
Codec ID : mp4a-40-2
Duration : 44 min 55 s
Bit rate mode : Variable
Bit rate : 126 kb/s
Maximum bit rate : 127 kb/s
Channel(s) : 2 channels
Channel positions : Front: L R
Sampling rate : 44.1 kHz
Frame rate : 43.066 FPS
Compression mode : Lossy
Stream size : 40.4 MiB (6%)
Default : Yes
 

 

 

 

 

 
Title: Lucha.Underground.S04E12.1080p.WEB.h264-HEEL
Released: 2018.08.30
Source: WEB – El Rey
Resolution: 1920 x 1080 @ 29.970 FPS
Video: H.264 @ 4300 kbps
Audio: AAC @ 126 kbps
Size: 1.39 GB
Runtime: 44mn 54sec
 

 

 

 

 

 

Watch Lucha Underground S04E12 WEB HEEL /1080p mp4

 

 

 

 

Watch online

 

 

Waiting finish converting video

 

 

Server 1

 

 

 

 

 

 

 

 

 

 

 

 

 

 

 

 

Server 2

 

 

 

 

 

 

 

 

 

 

 

 

 

 

 

 

Uploaded By Site DX-TV.com

 

 

 

open rar file to see this password

 

 

 

 

The password : DX-TV.com

 

 

 

 

 

 

Uploaded.net + rapidgator.net

 

 

 

 

 

 

http://shrt10.com/jyj4Gc
 

 

 

http://shrt10.com/LlpjuKOJ
 

 

 

http://shrt10.com/bfEwY

 

 

 
http://shrt10.com/fOv3u
 

 

 

 

 

Watch Lucha Underground S04E12 WEB HEEL /1080p mp4