Watch Lucha Underground S04E10 1080p WEB HEEL mp4

Watch Lucha Underground S04E10 1080p WEB HEEL mp4

 

 

 

 


 

 

 

dx-tv.com

 

 

 

 

 

 

 

Complete name : Lucha.Underground.S04E10.1080p.WEB.h264-HEEL.mp4
Format : MPEG-4
Format profile : Base Media
File size : 1.39 GiB
Duration : 44 min 35 s
Overall bit rate mode : Variable
Overall bit rate : 4 447 kb/s
Movie name : Lucha
Law rating : TV-14
Writing application : Lavf58.2.103

Video
ID : 1
Format : AVC
Format/Info : Advanced Video Codec
Codec ID/Info : Advanced Video Coding
Duration : 44 min 35 s
Bit rate mode : Constant
Bit rate : 4 300 kb/s
Width : 1 920 pixels
Height : 1 080 pixels
Display aspect ratio : 16:9
Frame rate mode : Variable
Frame rate : 29.970 (30000/1001) FPS
Minimum frame rate : 28.064 FPS
Maximum frame rate : 30.040 FPS
Color space : YUV
Chroma subsampling : 4:2:0
Bit depth : 8 bits
Scan type : Progressive
Bits/(Pixel*Frame) : 0.069
Stream size : 1.34 GiB (97%)

Audio
ID : 2
Format : AAC
Format/Info : Advanced Audio Codec
Format profile : LC
Codec ID : mp4a-40-2
Duration : 44 min 35 s
Bit rate mode : Variable
Bit rate : 126 kb/s
Maximum bit rate : 130 kb/s
Channel(s) : 2 channels
Channel positions : Front: L R
Sampling rate : 44.1 kHz
Frame rate : 43.066 FPS (1024 SPF)
Compression mode : Lossy
Stream size : 40.1 MiB (3%)
 

 

 

 

Watch Lucha Underground S04E10 1080p WEB HEEL mp4

 

 

 

 

Watch online

 

 

Waiting finish converting video

 

 

Server 1

 

 

 

 

 

 

 

 

 

 

 

 

 

 

 

 

 

 

 

 

Server 2

 

 

 

 

 

 

 

 


 

 

 

 

 

Uploaded By Site DX-TV.com

 

 

 

open rar file to see this password

 

 

 

 

The password : DX-TV.com

 

 

 

 

Uploaded.net + rapidgator.net

 

 

 

 

 

 
http://shrt10.com/e5UHv

 
http://shrt10.com/kcW3Sx

 

 

 

 

 

 

 

 

 

Watch Lucha Underground S04E10 1080p WEB HEEL mp4

Support HVIPS

Please Disable Ad-Block To View This site. just help us to continue this work