Watch Lucha Underground 720p S04E19 HDTV mp4

Watch Lucha Underground 720p S04E19 HDTV mp4

 

 

 

 


 

 

 

dx-tv.com

 

 

 

 

 

 
Complete name : ucha Underground 720p S04E19 HDTV mp4
Format : MPEG-4
Format profile : Base Media
File size : 1.31 GiB
Duration : 44 min 58 s
Overall bit rate mode : Variable
Overall bit rate : 4 168 kb/s
Movie name : Savagery

Video
ID : 2
Format : AVC
Format/Info : Advanced Video Codec
Codec ID : avc1
Codec ID/Info : Advanced Video Coding
Duration : 44 min 58 s
Duration_LastFrame : -30 ms
Bit rate : 4 038 kb/s
Width : 960 pixels
Height : 716 pixels
Display aspect ratio : 16:9
Frame rate mode : Constant
Frame rate : 29.970
Color space : YUV
Chroma subsampling : 4:2:0
Bit depth : 8 bits
Scan type : Progressive
Bits/(Pixel*Frame) : 0.196
Stream size : 1.27 GiB (97%)
Language : English
Encoded date : UTC 2018-10-18 07:57:48
Tagged date : UTC 2018-10-18 07:58:32
Color range : Limited
Color primaries : BT.709
Transfer characteristics : BT.709
Matrix coefficients : BT.709

Audio
ID : 1
Format : AAC
Format/Info : Advanced Audio Codec
Format profile : LC
Codec ID : mp4a-40-2
Duration : 44 min 58 s
Duration_LastFrame : -8 ms
Bit rate mode : Variable
Bit rate : 126 kb/s
Maximum bit rate : 208 kb/s
Channel(s) : 2 channels
Channel positions : Front: L R
Sampling rate : 48.0 kHz
Frame rate : 46.875 FPS (1024 SPF)
Compression mode : Lossy
Stream size : 40.4 MiB (3%)
Language : English
Default : Yes
Alternate group : 1
Encoded date : UTC 2018-10-18 07:55:58
Tagged date : UTC 2018-10-18 07:57:47

 

 

 

Watch Lucha Underground 720p S04E19 HDTV mp4

 

 

 

 

Watch online

 

 

Waiting finish converting video

 

 

Server 1

 

 

 

 

 

 

 

 

 

 

 

 

 

 

 

Server 2

 

 

 

 

 

 


 

 

 

 

 

 

 

Uploaded By Site DX-TV.com

 

 

 

open rar file to see this password

 

 

 

 

The password : DX-TV.com

 

 

 

 

Uploaded.net + rapidgator.net

 

 

 

 

 

http://shrt10.com/GsFeocq

 

 

 

 
http://shrt10.com/jJJpyY
 

 

 

 

 

Watch Lucha Underground 720p S04E19 HDTV mp4