Watch Joshua Vs Pulev Free Online 2020 12 12 720p DX-TV

Watch Joshua Vs Pulev Free Online 2020 12 12 720p DX-TV

Watch Joshua Vs Pulev

 Boxing Joshua Vs Pulev

 

Download Links with premium High Speed   

 

 

dropapk.to

http://shrt10.com/l7UC8Nr
http://shrt10.com/ckb8Pwh

 

 

nitroflare.com

http://shrt10.com/PXijAJ
http://shrt10.com/7oH9dr9kc

 

 

rapidgator.net

http://shrt10.com/pWScG
http://shrt10.com/G7RU3jC

 

 

uploaded.net

http://shrt10.com/obimc

 

 

uploadgig.com

http://shrt10.com/ofOHaJm
http://shrt10.com/V4R82r

 

Watch online

 

Server 1

 

 

 

 

Boxing Joshua Vs Pulev

 

 

 

 

Server-2

 

 

 

 

watch now

 

 

 

 

Uploaded By Site DX-TV.com

 

[su_expand more_text=”Show More Info” less_text=”Close all Info” height=”50″ text_color=”#000000″ link_color=”#e25f8b” link_style=”button” more_icon=”icon: arrow-down” less_icon=”icon: arrow-up”]
Complete name : Boxing.2020.12.12.Joshua.Vs.Pulev.Full.Ppv.480P.Hdtv-Dx-Tv-1-1.mp4
Format : MPEG-4
Format profile : Base Media
File size : 3.43 GiB
Duration : 6 h 3 min
Overall bit rate : 1 352 kb/s

Video
ID : 1
Format : AVC
Duration : 6 h 3 min
Bit rate : 1 204 kb/s
Width : 720 pixels
Height : 480 pixels
Display aspect ratio : 16:9
display aspect rat : 16:9
Frame rate mode : Variable
Frame rate : 25.000 FPS
Color space : YUV
Chroma subsampling : 4:2:0
Bit depth : 8 bits
Scan type : Progressive
Bits/(Pixel*Frame) : 0.139
Stream size : 3.05 GiB
Color range : Limited
Color primaries : BT.709
Transfer characteristics : BT.709
Matrix coefficients : BT.709
Codec configuration box : avc

Watch Joshua Vs Pulev

Audio
ID : 2
Format : AAC LC
Format/Info : Advanced Audio
Codec ID : mp4a-40-2
Duration : 6 h 3 min
Bit rate mode : Constant
Bit rate : 144 kb/s
Channel(s) : 2 channels
Channel layout : L R
Sampling rate : 48.0 kHz
Frame rate : 46.875 FPS
Compression mode : Lossy
Stream size : 368 MiB
Title : Stereo
Language : English
Default : Yes
Alternate group : 1

Complete name : Boxing.2020.12.12.Joshua.Vs.Pulev.Full.Ppv.720p.Hdtv-Dx-Tv-1.mp4
Format : MPEG-4
Format profile : Base Media
File size : 6.28 GiB
Duration : 6 h 3 min
Overall bit rate : 2 475 kb/s

 Joshua Vs Pulev

Video
ID : 1
Format : AVC
Duration : 6 h 3 min
Bit rate : 2 324 kb/s
Width : 1 280 pixels
Height : 720 pixels
Display aspect ratio : 16:9
Frame rate mode : Variable
Frame rate : 25.000 FPS
Color space : YUV
Chroma subsampling : 4:2:0
Bit depth : 8 bits
Scan type : Progressive
Bits/(Pixel*Frame) : 0.101
Color range : Limited
Color primaries : BT.709
Transfer characteristics : BT.709
Matrix coefficients : BT.709
Codec configuration box : avc

Audio
ID : 2
Format : AAC LC
Codec ID : mp4a-40-2
Duration : 6 h 3 min
Bit rate mode : Constant
Bit rate : 144 kb/s
Channel(s) : 2 channels
Channel layout : L R
Sampling rate : 48.0 kHz
Frame rate : 46.875 FPS (1024 SPF)
Compression mode : Lossy
Stream size : 372 MiB (6%)
Title : Stereo
Language : English
Default : Yes

Watch Joshua Vs Pulev

[/su_expand]

 

https://dx-tv.com/