Watch JAPW Redemption 2018 02 24

Watch JAPW Redemption 2018 02 24

 

 

 

 

 

wwe

 

 

 

 

 

 

 

Complete name : JAPW – Redemption (Feb 24 2018).mp4
Format : MPEG-4
Format profile : Base Media / Version 2
Codec ID : mp42
File size : 2.12 GiB
Duration : 2h 22mn
Overall bit rate : 2 132 Kbps
Encoded date : UTC 2018-03-14 13:12:34
Tagged date : UTC 2018-03-14 13:13:50

Video
ID : 1
Format : AVC
Format/Info : Advanced Video Codec
Format profile : [email protected]
Codec ID : avc1
Codec ID/Info : Advanced Video Coding
Duration : 2h 22mn
Bit rate mode : Variable
Bit rate : 2 000 Kbps
Width : 854 pixels
Height : 480 pixels
Display aspect ratio : 16:9
Frame rate mode : Constant
Frame rate : 29.970 fps
Color space : YUV
Chroma subsampling : 4:2:0
Bit depth : 8 bits
Scan type : Progressive
Bits/(Pixel*Frame) : 0.163
Stream size : 1.99 GiB (94%)
Language : English

Audio
ID : 2
Format : AAC
Format/Info : Advanced Audio Codec
Format profile : LC
Codec ID : 40
Duration : 2h 22mn
Bit rate mode : Constant
Bit rate : 128 Kbps
Channel(s) : 2 channels
Channel positions : Front: L R
Sampling rate : 48.0 KHz
Compression mode : Lossy
Stream size : 131 MiB (6%)
Language : English
Encoded date : UTC 2018-03-14 13:12:28
Tagged date : UTC 2018-03-14 13:13:50

 

 

 

 

 

 

 

 

Watch JAPW Redemption 2018 02 24

 

 

 

 

Watch online

 

 

Waiting finish converting video

 

 

Server 1

 

 

 

 

 

 

 

 

 

 

 

 

 

 

 

Server 2

 

 

 

 

 

 


 

 

 

 

 

 

 

Uploaded By Site DX-TV.com

 

 

 

open rar file to see this password

 

 

 

 

The password is : DX-TV.com

 

 

 

 

 

 

 

Uploaded.net + rapidgator.net

 

 

 

 

 

 

 

http://shrt10.com/ujahtnp

 

 

 

 

http://shrt10.com/XGxnV

 

 

 

 

 

 

 

 

 

Watch JAPW Redemption 2018 02 24

WE need Staff/ Uploader/ Capper best quality For DX-TV
For More INFO Send PM for Admin on Email : [email protected]

X