Watch IWS 2018 03 03 UnFnSanctioned WEB WD /720p

Watch IWS 2018 03 03 UnFnSanctioned WEB WD /720p

 

 

 

s

 

 

 

wwe

 

 

 

 

 

 Complete name : IWS.2018.03.03.UnFnSanctioned.READNFO.WEB.h264-WD.mp4
Format : MPEG-4
Format profile : Base Media
Codec ID : isom
File size : 978 MiB
Duration : 2h 13mn
Overall bit rate : 1 023 Kbps
Writing application : Lavf58.9.100

Video
ID : 1
Format : AVC
Format/Info : Advanced Video Codec
Codec ID : avc1
Codec ID/Info : Advanced Video Coding
Duration : 2h 13mn
Bit rate mode : Variable
Bit rate : 853 Kbps
Width : 854 pixels
Height : 480 pixels
Display aspect ratio : 16:9
Frame rate mode : Variable
Frame rate : 29.941 fps
Original frame rate : 29.970 fps
Minimum frame rate : 14.085 fps
Maximum frame rate : 31.250 fps
Color space : YUV
Chroma subsampling : 4:2:0
Bit depth : 8 bits
Scan type : Progressive
Bits/(Pixel*Frame) : 0.070
Stream size : 815 MiB (83%)

Audio
ID : 2
Format : AAC
Format/Info : Advanced Audio Codec
Format profile : LC
Codec ID : 40
Duration : 2h 13mn
Bit rate mode : Constant
Bit rate : 160 Kbps
Channel(s) : 2 channels
Channel positions : Front: L R
Sampling rate : 44.1 KHz
Compression mode : Lossy
Stream size : 153 MiB (16%)

 

 

 

 

 

 

 
Battle Royal º
º º
º IWS World Heavyweight Title Match º
º Big Magic (c) vs. Buxx Belmar º
º º
º Singles Match º
º Brute Van Slyke vs. Steven Mainz º
º º
º Tables Match º
º Jason Gray vs. Keven Gray º
º º
º No Disqualification Match º
º Beef Wellington vs. Scott Parker º
º º
º Tag Team Match º
º Black Dynomite & Kevin Blanchard vs. Le Tabarnak de Team (Mathieu º
º St-Jacques & Thomas Dubois) º
º º
º Singles Match º
º Maxim Lemire vs. Sexxxy Eddy º
º º
º IWS Canadian Title Match º
º Matt Angel (c) vs. Frank Milano vs. Rob Van Dam
 

 

 

 

 

 

Watch IWS 2018 03 03 UnFnSanctioned WEB WD /720p

 

 

 

 

Watch online

 

 

Waiting finish converting video

 

 

Server 1

 

 

 

 

 

 

 

 

 

 

 

 

 

 

 

Server 2

 

 

 

 

 

 


 

 

 

 

 

 

 

Uploaded By Site DX-TV.com

 

 

 

open rar file to see this password

 

 

 

 

The password is : DX-TV.com

 

 

 

 

400p+720p

 

 

 

 

 

Uploaded.net + rapidgator.net

 

 

 

 

 

 

http://shrt10.com/YfUqfwcM

 

 

http://shrt10.com/hdwZ

 

 

 

http://shrt10.com/xilHbbz

 

 

 

http://shrt10.com/eYbMDlle

 

 

 

 

 

 

 

Watch IWS 2018 03 03 UnFnSanctioned WEB WD /720p