Watch IPW UK 2018 02 21 Parade of Champions WEB NCMP /720p

Watch IPW UK 2018 02 21 Parade of Champions WEB NCMP /720p

 

 

 

s

 

 

 

wwe

 

 

 

 

 

 

Complete name : IPW.UK.2018.02.21.Parade.of.Champions.WEB.h264-NCMP.mp4
Format : MPEG-4
Format profile : Base Media
Codec ID : isom
File size : 1.52 GiB
Duration : 2h 16mn
Overall bit rate : 1 597 Kbps
Writing application : Lavf55.12.100

Video
ID : 2
Format : AVC
Format/Info : Advanced Video Codec
Codec ID : avc1
Codec ID/Info : Advanced Video Coding
Duration : 2h 16mn
Bit rate mode : Variable
Bit rate : 1 492 Kbps
Width : 854 pixels
Height : 480 pixels
Display aspect ratio : 16:9
Frame rate mode : Constant
Frame rate : 29.970 fps
Color space : YUV
Chroma subsampling : 4:2:0
Bit depth : 8 bits
Scan type : Progressive
Bits/(Pixel*Frame) : 0.121
Stream size : 1.42 GiB (93%)
Audio
ID : 1
Format : AAC
Format/Info : Advanced Audio Codec
Format profile : LC
Codec ID : 40
Duration : 2h 16mn
Bit rate mode : Constant
Bit rate : 96.0 Kbps
Channel(s) : 2 channels
Channel positions : Front: L R
Sampling rate : 48.0 KHz
Compression mode : Lossy
Stream size : 95.5 MiB (6%)

 

 

 

 

 

 

 

 
Apologies for the non-existent seeding the last time round. There was a power outage. It should be back to normal now.

Name of the event: IPW:UK Parade Of Champions
Date: 21.02.2018
Promotion: International Pro Wrestling United Kingdom
Type: Event
Location: Milton Keynes, Buckinghamshire, England, UK
Arena: Unit Nine

Z-Force Title Match
Kip Sabian (c) vs. Cara Noir

Tag Team Match
M&M (Connor Mills & Maverick Mayhew) vs. The South Coast Connection (Ashley Dunn & Kelly Sixx)

All England Title Match
Adam Maxted (c) vs. Sha Samuels

NWA World Heavyweight Title Match
Nick Aldis (c) vs. David Starr

Singles Match
Jordan Devlin vs. Luke Phoenix

Six Man Tag Team Match
Amir Jordan & Never Say Die (Alex Cupid & Dillon D’Angelo) vs. The Collective (James Castle, Lewis
Howley & Sammy Smooth)

IPW:UK World Title Match
Austin Aries (c) vs. Mark Haskins
 

 

 

 

 

 

 

 

 

 

Watch IPW UK 2018 02 21 Parade of Champions WEB NCMP /720p

 

 

 

 

Watch online

 

 

Waiting finish converting video

 

 

Server 1

 

 

 

 

 

 

 

 

 

 

 

 

 

 

 

 

 

 

Server 2

 

 

 

 

 

 


 

 

 

 

 

 

Uploaded By Site DX-TV.com

 

 

 

open rar file to see this password

 

 

 

 

The password is : DX-TV.com

 

 

 

 

400p+720p

 

 

 

 

 

Uploaded.net + rapidgator.net

 

 

 

 

 

 

http://shrt10.com/FsUNs

 

 

 

http://shrt10.com/Z91OB6m4

 

 

http://shrt10.com/WLaZcZN

 

 

 

http://shrt10.com/SgJY

 

 

 

 

 

 

Watch IPW UK 2018 02 21 Parade of Champions WEB NCMP /720p