Watch Invicta FC 41 Full Show Free Online

Watch Invicta FC 41 Full Show Free Online DX-TV

 

Invicta FC 41
 WWE RAW

Watch Invicta FC 41 Full Show Free Online

 

 

 

Complete name : Invicta.FC.41
Format : MPEG-4
Format profile : Base Media
Codec ID : isom Invicta FC 41
File size : 1.23 GiB
Duration : 2 h 27 min
Overall bit rate mode : Variable
Overall bit rate : 1 197 kb/s
Writing application : Lavf58. 

 Invicta FC 41 Full Show Free Online

Video
ID : 1
Format : AVC
Format/Info : Advanced
Codec ID : avc1
Codec ID/Info : Advanced
Duration : 2 h 27 min
Bit rate mode : Variable
Bit rate : 1 058 kb/s
Maximum bit rate : 1 069 kb/s
Width : 896 pixels
Height : 504 pixels
Display aspect ratio : 16:9
Frame rate mode : Variable
rate : 30.000 FPS
frame rate : 10.000 FPS
rate : 90 000.000 FPS
Standard : NTSC Invicta FC 41
Color space : YUV
Chroma sub sampling : 4:2:0
Bit depth : 8 bits
Scan type : Progressive
Bits/(Pixel*Frame) : 0.078
Stream size : 1.09 GiB (88%)
Color range : Limited
Color primaries : BT.709
Transfer characteristics : BT.709
Matrix coefficients : BT.709
Codec configuration box : avcC

Watch Invicta FC 41 Full Show Free Online

Audio
ID : 2
Format : AAC LC
Format/Info : Advanced
Codec ID : mp4a-40-2
Duration : 2 h 27 min
Bit rate mode : Constant
Bit rate : 132 kb/s
Channel(s) : 2 channels
Channel layout : L R
Sampling rate : 48.0 kHz
Frame rate : 46.875 FPS Invicta FC 41
Compression mode : Lossy
Stream size : 138 MiB (11%)
Default : Yes
Alternate group : 1

 

 

Watch Invicta FC 41 Full Show Free Online

 

 

 

Watch online

 

 

Server 1

 

 

 

 

Invicta FC 41

 

 

 

 

Server 2

 

 

Invicta FC 41 Full Show Free Online

watch now

 

 

 

Server-3

 

 

 

Invicta FC 41

 

 

 

Uploaded By Site DX-TV.com

 

 

 

Download with premium account Links 

 

 

Keep2Share

 

 

nitroflare.com

 

 

rapidgator.net

 

 

uploadgig.com

 

 

 

dx-tv.com

 

urlfree.net

 84 total views,  6 views today

Leave a Reply

Your email address will not be published. Required fields are marked *

This site uses Akismet to reduce spam. Learn how your comment data is processed.

%d bloggers like this: