Watch Invicta FC 27 Kianzad vs Kaufman WEB DL SF63 /720p

Watch Invicta FC 27 Kianzad vs Kaufman WEB DL SF63 /720p

 

 

 

 

 

wwe

 

 

 

 

 

 

 

 

Complete name : Invicta.FC.27.Kianzad.vs.Kaufman.WEB.DL.H264-SF63.mp4
Format : MPEG-4
Format profile : Base Media
Codec ID : isom
File size : 2.62 GiB
Duration : 4h 6mn
Overall bit rate : 1 526 Kbps
Writing application : Lavf56.40.101

Video
ID : 1
Format : AVC
Format/Info : Advanced Video Codec
Codec ID : avc1
Codec ID/Info : Advanced Video Coding
Duration : 4h 6mn
Bit rate mode : Variable
Bit rate : 1 439 Kbps
Width : 960 pixels
Height : 540 pixels
Display aspect ratio : 16:9
Frame rate mode : Variable
Frame rate : 29.950 fps
Original frame rate : 29.970 fps
Minimum frame rate : 0.100 fps
Maximum frame rate : 29.970 fps
Color space : YUV
Chroma subsampling : 4:2:0
Bit depth : 8 bits
Scan type : Progressive
Bits/(Pixel*Frame) : 0.093
Stream size : 2.48 GiB (94%)

Audio
ID : 2
Format : AAC
Format/Info : Advanced Audio Codec
Format profile : LC
Codec ID : 40
Duration : 4h 6mn
Bit rate mode : Variable
Bit rate : 77.5 Kbps
Maximum bit rate : 81.3 Kbps
Channel(s) : 2 channels
Channel positions : Front: L R
Sampling rate : 44.1 KHz
Compression mode : Lossy
Stream size : 136 MiB (5%)

 

 

 

 

 

 

 

Invicta.FC.27.Kianzad.vs.Kaufman.720p.WEB.DL.H264-SF63
Release Date: Jan 13, 2018
Encoder: Sajjad Fazli
Source: UFC.TV
Video Codec: (H.264) 1280×720 3000kbps 29.970fps
Audio Codec: AAC 48.0HZ stereo 125kbps
RunTime: 4h 6mn
File Size: 5.03 GiB
 

 

 

 

 

 

 

 

 

 

Watch Invicta FC 27 Kianzad vs Kaufman WEB DL SF63 /720p

 

 

 

 

Watch online

 

 

Waiting finish converting video

 

 

Server 1

 

 

 

 

 

 

 

 

 

 

 

 

 

 

 

 

 

 

 

 

 

 

 

Srver 2

 

 

 

 

 

 

 

 

 

 

 

 

 

 

 


 

 

 

 

 

 

 

 

 

 

 

 

Uploaded By Site DX-TV.com

 

 

 

open rar file to see this password

 

 

 

 

The password is : DX-TV.com

 

 

 

 

400p+720p

 

 

 

 

Uploaded.net + rapidgator.net

 

 

 

 

 

 

 

 

 

 

 

http://shrt10.com/GIozhDSb

 

 

http://shrt10.com/iv1K

 

 

http://shrt10.com/t1aGmB5e

 

 

http://shrt10.com/cXhN13u3

 

 

http://shrt10.com/AxaA

 

 

http://shrt10.com/aXQcL21O

 

 

 

 

 

 

 

 

 

 

 

 

 

 

 

 

 

 

 

 

 

 

 

 

Watch Invicta FC 27 Kianzad vs Kaufman WEB DL SF63 /720p