Watch Impact wrestling Salute to the Troops PPV 2019/05/11 WEB HD DX-TV free full show online

 

 

 

 


 

 

dx-tv.com

 

 

 

 

 

[EVENT]………..: Impact Salute to the Troops PPV 2019/05/11 WEB HD DX-TV mp4
[RELEASED]……..: 2019.05.11
[SOURCE]……….: WEB DL
[CONTAINER]…….: mp4
[SIZE]…………: 1.68. GB
[Capper Group]….: DX-TV
[Duration]……..: 2 h 30 m
[RESOLUTION]……: 704 x 400 {16:9}@ 29.970 FPS
[VIDEO]………..: x264 @ 1500 kbps
[AUDIO]………..: AAC @ 129 kbps
[language]……..: English
 

 

 

 

Complete name : Impact wrestling Salute to the Troops PPV 2019-05-11 WEB HD DX-TV.mp4
Format : MPEG-4
File size : 1.69 GiB
Duration : 2 h 24 min
Overall bit rate mode : Variable
Overall bit rate : 1 670 kb/s

Video
ID : 1
Format : AVC
Format/Info : Advanced Video Codec
Codec ID : avc1
Codec ID/Info : Advanced Video Coding
Duration : 2 h 24 min
Bit rate : 1 500 kb/s
Width : 704 pixels
Height : 400 pixels
Display aspect ratio : 16:9
Frame rate mode : Variable
Frame rate : 29.970 FPS
Minimum frame rate : 12.503 FPS
Maximum frame rate : 3 913.043 FPS
Color space : YUV
Chroma subsampling : 4:2:0
Bit depth : 8 bits
Scan type : Progressive
Bits/(Pixel*Frame) : 0.178
Stream size : 1.52 GiB (90%)

Color range : Limited
Color primaries : BT.709
Transfer characteristics : BT.709
Matrix coefficients : BT.709
Codec configuration box : avcC

Audio
ID : 2
Format : AAC LC
Format/Info : Advanced Audio Codec Low Complexity
Codec ID : mp4a-40-2
Duration : 2 h 24 min
Bit rate mode : Variable
Bit rate : 160 kb/s
Channel(s) : 2 channels
Channel layout : L R
Sampling rate : 44.1 kHz
Frame rate : 43.066 FPS (1024 SPF)
Compression mode : Lossy
Stream size : 165 MiB (10%)
Title : Stereo / Stereo
Language : English
Default : Yes
Alternate group : 1

 

 

 

 

 

Watch Impact wrestling Salute to the Troops PPV 2019/05/11 WEB HD DX-TV free full show online

 

 

 

 

Watch online

 

 

Waiting finish converting video

 

 

Server 1

 

 

 

 

 

 

 

 

 

 

Server 2

 

 

 

 

 

 

 

 

 

 

Uploaded By Site DX-TV.com

 

 

 

open rar file to see this password

 

 

 

 

The password : DX-TV.com

 

 

 


https://shrt10.com/ILGyoYY

https://shrt10.com/Y2xbKwP

https://shrt10.com/J9bEB

https://shrt10.com/VAEHU7

https://shrt10.com/1A7ie8nX

 

 

 

 

Watch Impact wrestling Salute to the Troops PPV 2019/05/11 WEB HD DX-TV free full show online