Watch IMPACT Wrestling Sacrifice 2021 720p

Watch IMPACT Wrestling Sacrifice 2021 720p DX-TV

Watch IMPACT Wrestling Sacrifice 2021

 Watch IMPACT Wrestling Sacrifice 2021

 

 

 

Download Links with High Speed


Dopapk

 

 

Show Links

 

http://shrt10.com/MX4Gs3Mn

http://shrt10.com/mEaFX8

[collapse]

 

 

Nitroflare

 

 

Show Links

 

http://shrt10.com/qyOJUH3
http://shrt10.com/bdFQFtQXs

 

[collapse]

 

 

Rapidgator

 

 

Show Links

 

http://shrt10.com/GpcHU839
http://shrt10.com/1a5nw

 

[collapse]

 

 

Uploaded

 

 

Show Links

 

http://shrt10.com/sG50ju
http://shrt10.com/AY4dZHW

 

[collapse]

 

 

Watch online

 

Server 1

 

 

 

 

watch now

 

 

 

 

Server-2

 

 

 

 

watch now

 

 

 

|Server-3

 

 

 

 

watch Wrestling Sacrifice 2021

 

 

Uploaded By Site DX-TV.com

 

 

Show Info This Show

 

 

Complete name : IMPACT Wrestling Sacrifice 2021.720p DX-TV.mp4
Format : MPEG-4
Format profile : Base Media
Codec ID : isom
File size : 4.38 GiB
Duration : 2 h 45 min
Overall bit rate mode : Variable
Overall bit rate : 3 796 kb/s

IMPACT Wrestling 

Video
ID : 1
Format : AVC
Duration : 2 h 45 min
Bit rate : 3 655 kb/s
Width : 1 920 pixels
Height : 1 080 pixels
Display aspect ratio : 16:9
Frame rate mode : Variable
Frame rate : 29.970 (30000/1001) FPS
Minimum frame rate : 29.412 FPS
Maximum frame rate : 30.303 FPS
Color space : YUV
Chroma subsampling : 4:2:0
Bit depth : 8 bits
Scan type : Progressive
Bits/(Pixel*Frame) : 0.059
Stream size : 4.22 GiB (96%)
Codec configuration box : avcC

Audio
ID : 2
Format : AAC LC
Codec ID : mp4a-40-2
Duration : 2 h 45 min
Bit rate mode : Variable
Bit rate : 129 kb/s
Maximum bit rate : 170 kb/s
Channel(s) : 2 channels
Channel layout : L R
Sampling rate : 48.0 kHz
Frame rate : 46.875 FPS (1024 SPF)
Compression mode : Lossy
Stream size : 152 MiB (3%)
Default : Yes
Alternate group : 1

IMPACT Wrestling Sacrifice 2021

Complete name : IMPACT Wrestling Sacrifice 2021.DX-TV.mp4
Format : MPEG-4
Format profile : Base Media
Codec ID : isom
File size : 2.18 GiB
Duration : 2 h 45 min
Overall bit rate mode : Variable
Overall bit rate : 1 891 kb/s

Video
ID : 1
Format : AVC
Duration : 2 h 45 min
Bit rate : 1 784 kb/s
Width : 1 280 pixels
Height : 720 pixels
Display aspect ratio : 16:9
Frame rate mode : Variable
Frame rate : 29.970 FPS
Minimum frame rate : 29.412 FPS
Maximum frame rate : 30.303 FPS
Color space : YUV
Chroma subsampling : 4:2:0
Bit depth : 8 bits
Scan type : Progressive
Bits/(Pixel*Frame) : 0.065
Stream size : 2.06 GiB (94%)
Codec configuration box : avcC

IMPACT Wrestling Sacrifice 2021

Audio
ID : 2
Format : AAC LC
Codec ID : mp4a-40-2
Duration : 2 h 45 min
Bit rate mode : Variable
Bit rate : 96.0 kb/s
Maximum bit rate : 4 157 Mb/s
Channel(s) : 2 channels
Channel layout : L R
Sampling rate : 48.0 kHz
Frame rate : 46.875 FPS
Compression mode : Lossy
Stream size : 114 MiB (5%)
Default : Yes
Alternate group : 1

 

 

[collapse]

 

 

https://dx-tv.com/