Watch IMPACT Wrestling Sacrifice 2021 1080p

Watch IMPACT Wrestling Sacrifice 2021 1080p DX-TV

Watch IMPACT Wrestling Sacrifice 2021

 Watch IMPACT Wrestling Sacrifice 2021

 

 

 

Download Links with premium High Speed


 

Dopapk

 

 

Show Links

 

http://shrt10.com/N77Evj700

 

[collapse]

 

 

Nitroflare

 

 

Show Links

 

http://shrt10.com/nSTpdZ

 

[collapse]

 

 

Rapidgator

 

 

Show Links

 

http://shrt10.com/2dYF5ZSJ

 

[collapse]

 

 

Uploaded

 

 

Show Links

 

http://shrt10.com/jIkPtKmU

 

[collapse]

 

 

Watch online

 

Server 1

 

 

 

 

watch now

 

 

 

 

Server-2

 

 

 

 

watch now

 

 

 

|Server-3

 

 

 

 

watch Wrestling Sacrifice 2021

 

 

Uploaded By Site DX-TV.com

 

 

Show Info This Show

 

 

Complete name : IMPACT.Wrestling.Sacrifice.2021.3.13.1080p.h264.ReSync.mp4
Format : MPEG-4
Format profile : Base Media
Codec ID : isom
File size : 4.38 GiB
Duration : 2 h 45 min
Overall bit rate : 3 796 kb/s

Video
ID : 1
Format : AVC
Duration : 2 h 45 min
Source duration : 2 h 45 min
Bit rate : 3 654 kb/s
Width : 1 920 pixels
Height : 1 080 pixels
Display aspect ratio : 16:9
Frame rate mode : Variable
Frame rate : 29.970 FPS
Minimum frame rate : 12.346 FPS
Maximum frame rate : 30.303 FPS
Color space : YUV
Chroma subsampling : 4:2:0
Bit depth : 8 bits
Scan type : Progressive
Bits/(Pixel*Frame) : 0.059
mdhd_Duration : 9922326
Codec configuration box : avcC

Audio
ID : 2
Format : AAC LC
Codec ID : mp4a-40-2
Duration : 2 h 45 min
Bit rate mode : Constant
Bit rate : 129 kb/s
Channel(s) : 2 channels
Channel layout : L R
Sampling rate : 48.0 kHz
Frame rate : 46.875 FPS
Compression mode : Lossy
Stream size : 152 MiB
Default : Yes
Alternate group : 1

Audio
ID : 2
Format : AAC LC
Codec ID : mp4a-40-2
Duration : 2 h 45 min
Bit rate mode : Constant
Bit rate : 129 kb/s
Channel(s) : 2 channels
Channel layout : L R
Sampling rate : 48.0 kHz
Frame rate : 46.875 FPS
Compression mode : Lossy
Stream size : 152 MiB
Default : Yes
Alternate group : 1

 

Audio
ID : 2
Format : AAC LC
Codec ID : mp4a-40-2
Duration : 2 h 45 min
Bit rate mode : Constant
Bit rate : 129 kb/s
Channel(s) : 2 channels
Channel layout : L R
Sampling rate : 48.0 kHz
Frame rate : 46.875 FPS
Compression mode : Lossy
Stream size : 152 MiB
Default : Yes
Alternate group : 1

 

[collapse]

 

 

https://dx-tv.com/

You May Also Like