Watch iMPACT Wrestling Online 2020 12 15 /720p DX-TV

Watch iMPACT Wrestling 2020 12 15 HDTV NWCHD /720p DX-TV

Watch iMPACT Wrestling Online

 Watch iMPACT Wrestling Online

 

Download Links with premium High Speed   

 

 

dropapk.to

http://shrt10.com/na6Q6AGGa
http://shrt10.com/68vy3Q2

 

 

nitroflare.com

http://shrt10.com/jX4ZI
http://shrt10.com/1l7ZYM

 

 

rapidgator.net

http://shrt10.com/wfsdTEEI
http://shrt10.com/kKmS8

 

 

uploaded.net

http://shrt10.com/dQ7ci2
http://shrt10.com/jEI9Xr

 

 

uploadgig.com

http://shrt10.com/OvEFiMoCW
http://shrt10.com/y7jzOun3

 

Watch online

 

Server 1

 

 

 

 

Watch iMPACT Wrestling Online

 

 

 

 

Server-2

 

 

 

 

watch now

 

 

Uploaded By Site DX-TV.com

 

 

 

[su_expand more_text=”Show More Info” less_text=”Close all Info” height=”50″ text_color=”#000000″ link_color=”#e25f8b” link_style=”button” more_icon=”icon: arrow-down” less_icon=”icon: arrow-up”]
Complete name : iMPACT.Wrestling.2020.12.15.HDTV.x264-NWCHD.mp4
Format : MPEG-4
File size : 969 MiB
Duration : 1 h 25 min
Overall bit rate : 1 575 kb/s
Writing application : Lavf58.27.103

Video
ID : 1
Format : AVC
Duration : 1 h 25 min
Bit rate : 1 400 kb/s
Width : 704 pixels
Height : 400 pixels
Display aspect ratio : 16:9
Frame rate mode : Variable
Frame rate : 29.970 (29970/1000) FPS
Color space : YUV
Chroma subsampling : 4:2:0
Bit depth : 8 bits
Scan type : Progressive
Bits/(Pixel*Frame) : 0.166
Stream size : 845 MiB (87%)
Color primaries : BT.709
Transfer characteristics : BT.709
Matrix coefficients : BT.709
Codec configuration box : avc

Watch iMPACT Wrestling Online

Audio
ID : 2
Format : AAC LC
Codec ID : mp4a-40-2
Duration : 1 h 25 min
Bit rate mode : Constant
Bit rate : 192 kb/s
Channel(s) : 2 channels
Channel layout : L R
Sampling rate : 48.0 kHz
Frame rate : 46.875 FPS (1024 SPF)
Compression mode : Lossy
Stream size : 118 MiB (12%)
Title : Stereo
Language : English
Default : Yes
Alternate group : 1

Complete name : iMPACT.Wrestling.2020.12.15.720p.HDTV.x264-NWCHD.mp4
Format : MPEG-4
Format profile : Base Media
File size : 2.78 GiB
Duration : 1 h 25 min
Overall bit rate : 4 628 kb/s
Writing application : Lavf58.51.101

Video
ID : 1
Format : AVC
Format/Info : Advanced Video
Duration : 1 h 25 min
Bit rate : 4 500 kb/s
Width : 1 280 pixels
Height : 720 pixels
Display aspect ratio : 16:9
Frame rate mode : Variable
Frame rate : 29.970 FPS
Color space : YUV
Chroma subsampling : 4:2:0
Bit depth : 8 bits
Scan type : Progressive
Bits/(Pixel*Frame) : 0.163
Stream size : 2.66 GiB (96%)
Color primaries : BT.709
Transfer characteristics : BT.709
Matrix coefficients : BT.709
Codec configuration box : avc

Watch iMPACT Wrestling Online

Audio
ID : 2
Format : AAC LC
Codec ID : mp4a-40-2
Duration : 1 h 25 min
Bit rate mode : Constant
Bit rate : 192 kb/s
Channel(s) : 2 channels
Channel layout : L R
Sampling rate : 48.0 kHz
Frame rate : 46.875 FPS (1024 SPF)
Compression mode : Lossy
Stream size : 118 MiB (4%)
Title : Stereo
Language : English
Default : Yes
Alternate group : 1

 iMPACT Wrestling Online

[/su_expand]

 

https://dx-tv.com/

Leave a Reply

Your email address will not be published. Required fields are marked *

This site uses Akismet to reduce spam. Learn how your comment data is processed.