Watch Impact Wrestling Knockouts Knockdown 2021 Replay

Watch Impact Wrestling Knockouts Knockdown 2021 10 09 PPV 540p/ 720p /1080p Full Show Replay DX-TV

Watch Impact Wrestling Knockouts Knockdown

 Watch Impact Wrestling Knockouts Knockdown

 

 

 

Download Links with premium High Speed

Dopapk

 

 

Show Links

 

 

down

no link here

 

 

 

 

 

Nitroflare

 

 

Show Links

 

 

http://shrt10.com/CQENJkjw

http://shrt10.com/esq2Km

http://shrt10.com/BJN0gDx

 

 

 

 

Rapidgator

 

 

Show Links

 

 

http://shrt10.com/SvJMQ7BwV

http://shrt10.com/rF2wO

http://shrt10.com/MwYjZ

 

 

 

 

 

Uploaded

Show Links

 

 

http://shrt10.com/IZPC8

http://shrt10.com/yDgsZGH

http://shrt10.com/kwTDUcb

 

 

 

 

 

 

 

Watch Impact Wrestling online

 

Server 1

 

 

 

 

Watch Impact Wrestling Knockouts Knockdown

 

 

 

 

Server-2

 

 

 

 

watch now

 

 

 

|Server-3

 

 

 

 

 Knockouts Knockdown

 

 

Uploaded By Site DX-TV.com

 

 

Open Info Show

 

 

Complete name : Impact Wrestling Knockouts Knockdown PPV 2021 10 09 540p WEB H264 By DX-TV.com.mp4
Format : MPEG-4
Format profile : Base Media
File size : 1.54 GiB
Duration : 2 h 51 min
Overall bit rate mode : Variable
Overall bit rate : 1 285 kb/s

Watch Impact Wrestling Knockouts Knockdown

Video
ID : 1
Format : AVC
Duration : 2 h 51 min
Bit rate mode : Variable
Bit rate : 1 181 kb/s
Maximum bit rate : 1 200 kb/s
Width : 960 pixels
Height : 540 pixels
Display aspect ratio : 16:9
Frame rate mode : Constant
Frame rate : 29.970 (30000/1001) FPS
Standard : NTSC
Color space : YUV
Chroma subsampling : 4:2:0
Bit depth : 8 bits
Scan type : Progressive
Bits/(Pixel*Frame) : 0.076
Stream size : 1.41 GiB (92%)
Color range : Limited
Color primaries : BT.709
Transfer characteristics : BT.709
Matrix coefficients : BT.709
Codec configuration box : avcC

Watch Impact Wrestling Knockouts Knockdown

Audio
ID : 2
Format : AAC LC
Codec ID : mp4a-40-2
Duration : 2 h 51 min
Bit rate mode : Variable
Bit rate : 93.6 kb/s
Maximum bit rate : 96.1 kb/s
Channel(s) : 2 channels
Channel layout : L R
Sampling rate : 44.1 kHz
Frame rate : 43.066 FPS (1024 SPF)
Compression mode : Lossy
Stream size : 115 MiB (7%)
Default : Yes
Alternate group : 1

Complete name : Impact Wrestling Knockouts Knockdown PPV 2021 10 09 720p WEB H264 By DX-TV.com.mp4
Format : MPEG-4
Format profile : Base Media
File size : 2.50 GiB
Duration : 2 h 53 min
Overall bit rate mode : Variable
Overall bit rate : 2 068 kb/s

Watch Impact Wrestling Knockouts Knockdown

Video
ID : 1
Format : AVC
Duration : 2 h 53 min
Bit rate mode : Variable
Bit rate : 1 965 kb/s
Maximum bit rate : 2 000 kb/s
Width : 1 280 pixels
Height : 720 pixels
Display aspect ratio : 16:9
Frame rate mode : Constant
Frame rate : 29.970 (30000/1001) FPS
Color space : YUV
Chroma subsampling : 4:2:0
Bit depth : 8 bits
Scan type : Progressive
Bits/(Pixel*Frame) : 0.071
Stream size : 2.38 GiB (95%)
Color range : Limited
Color primaries : BT.709
Transfer characteristics : BT.709
Matrix coefficients : BT.709
Codec configuration box : avcC

Watch Impact Wrestling Knockouts Knockdown

Audio
ID : 2
Format : AAC LC
Codec ID : mp4a-40-2
Duration : 2 h 53 min
Bit rate mode : Variable
Bit rate : 93.6 kb/s
Maximum bit rate : 103 kb/s
Channel(s) : 2 channels
Channel layout : L R
Sampling rate : 44.1 kHz
Frame rate : 43.066 FPS (1024 SPF)
Compression mode : Lossy
Stream size : 116 MiB (5%)
Language : English
Default : Yes
Alternate group : 1

Complete name : Impact Wrestling Knockouts Knockdown PPV 2021 10 09 1080p WEB H264 By DX-TV.com.mp4
Format : MPEG-4
Format profile : Base Media
File size : 4.90 GiB
Duration : 2 h 53 min
Overall bit rate mode : Variable
Overall bit rate : 4 033 kb/s

Video
ID : 1
Format : AVC
Duration : 2 h 53 min
Bit rate mode : Variable
Bit rate : 3 928 kb/s
Maximum bit rate : 4 000 kb/s
Width : 1 920 pixels
Height : 1 080 pixels
Display aspect ratio : 16:9
Frame rate mode : Constant
Frame rate : 29.970 (30000/1001) FPS
Color space : YUV
Chroma subsampling : 4:2:0
Bit depth : 8 bits
Scan type : Progressive
Bits/(Pixel*Frame) : 0.063
Stream size : 4.77 GiB (97%)
Color range : Limited
Color primaries : BT.709
Transfer characteristics : BT.709
Matrix coefficients : BT.709
Codec configuration box : avcC

Watch Impact Wrestling Knockouts Knockdown

Audio
ID : 2
Format : AAC LC
Codec ID : mp4a-40-2
Duration : 2 h 53 min
Bit rate mode : Constant
Bit rate : 93.6 kb/s
Channel(s) : 2 channels
Channel layout : L R
Sampling rate : 44.1 kHz
Frame rate : 43.066 FPS (1024 SPF)
Compression mode : Lossy
Stream size : 116 MiB (2%)
Language : English
Default : Yes
Alternate group : 1

 

 

https://dx-tv.com/

 

 

 

 

 

You May Also Like

Leave a Reply

Your email address will not be published. Required fields are marked *

This site uses Akismet to reduce spam. Learn how your comment data is processed.