Watch IMPACT Wrestling Genesis 2021 1080p DX-TV

Watch IMPACT Wrestling Genesis 2021 1080p 4.5GB DX-TV

Watch IMPACT Wrestling Genesis

 Watch IMPACT Wrestling Genesis

 

Download Links with premium High Speed   

 

 

nitroflare.com

http://shrt10.com/jl95PdmYv

 

 

rapidgator.net

http://shrt10.com/FQKPrhmO

 

 

uploaded.net

http://shrt10.com/bLfZWwjjh

 

 

uploadgig.com

http://shrt10.com/OI8CloM

 

Watch IMPACT Genesis online

 

Server 1

 

 

 

 

watch now

 

 

 

 

Server-2

 

 

 

 

watch now

 

 

Uploaded By Site DX-TV.com

 

 

Complete name : IMPACT.Wrestling.Genesis.2021.1080p.WEB.h264-lulz.mkv
Format : Matroska
Format version : Version 4
File size : 4.47 GiB
Duration : 2 h 45 min
Overall bit rate : 3 875 kb/s

Watch IMPACT Wrestling Genesis

Video
ID : 1
Format : AVC
Format/Info : Advanced Video
Codec ID : V_MPEG4/ISO/AVC
Duration : 2 h 45 min
Bit rate : 3 744 kb/s
Nominal bit rate : 4 800 kb/s
Width : 1 920 pixels
Height : 1 080 pixels
Display aspect ratio : 16:9
Frame rate mode : Constant
Frame rate : 29.970 (30000/1001) FPS
Color space : YUV
Chroma subsampling : 4:2:0
Bit depth : 8 bits
Scan type : Progressive
Bits/(Pixel*Frame) : 0.060
Stream size : 4.32 GiB (97%)
Writing library : x264 core 160
Forced : No

Watch IMPACT Wrestling Genesis

Audio
ID : 2
Format : AAC LC
Format/Info : Advanced Audio Codec Low Complexity
Codec ID : A_AAC-2
Duration : 2 h 45 min
Bit rate : 129 kb/s
Channel(s) : 2 channels
Channel layout : L R
Sampling rate : 48.0 kHz
Frame rate : 46.875 FPS (1024 SPF)
Compression mode : Lossy
Stream size : 152 MiB (3%)
Default : Yes
Forced : No

Audio
ID : 2
Format : AAC LC
Format/Info : Advanced Audio Codec Low Complexity
Codec ID : A_AAC-2
Duration : 2 h 45 min
Bit rate : 129 kb/s
Channel(s) : 2 channels
Channel layout : L R
Sampling rate : 48.0 kHz
Frame rate : 46.875 FPS (1024 SPF)
Compression mode : Lossy
Stream size : 152 MiB (3%)
Default : Yes
Forced : No

IMPACT Wrestling Genesis

Audio
ID : 2
Format : AAC LC
Format/Info : Advanced Audio Codec Low Complexity
Codec ID : A_AAC-2
Duration : 2 h 45 min
Bit rate : 129 kb/s
Channel(s) : 2 channels
Channel layout : L R
Sampling rate : 48.0 kHz
Frame rate : 46.875 FPS (1024 SPF)
Compression mode : Lossy
Stream size : 152 MiB (3%)
Default : Yes
Forced : No

 

 

https://dx-tv.com/

Leave a Reply

Your email address will not be published. Required fields are marked *

This site uses Akismet to reduce spam. Learn how your comment data is processed.