Watch iMPACT Wrestling Bound For Glory 2020 PPV

iMPACT Wrestling Bound For Glory 2020 PPV 1080p HDTV Star DX-TV

Bound For Glory 2020

 

 Bound For Glory 2020
 


 

 

Watch iMPACT Wrestling Bound For Glory 2020 PPV

 

Bound For Glory 2020 Results

 

The action gets started early on the LIVE Countdown to Glory pre-show at 7pm ET on AXS TV and IMPACT’s digital platforms!

The legendary Bret Hart sends Ken Shamrock a congratulatory message ahead of ,

his induction into the IMPACT Wrestling Hall of Fame later tonight on the.

LIVE Countdown to Glory pre-show.

Bound For Glory 2020

Hardcore legend and former TNA World Heavyweight Champion .

Mick Foley is next to congratulate Ken Shamrock on his Hall of Fame induction.

It’s time for the first match of the night as Matt Striker and Don Callis welcome us to ringside!

Cody is about to dive through the legs of his Cousin Jake but Wentz cuts him off.

Wentz flies over the top, colliding with Jake on the floor.

Jake takes both Rascalz off the top rope with a double powerbomb, followed by a huge splash from Cody.

Bound For Glory 2020

Complete name : iMPACT.Wrestling.Bound.For.Glory.2020.PPV.1080p.HDTV.x264-Star.mkv
Format : Matroska
Format version : Version 4
File size : 12.1 GiB
Duration : 2 h 48 min
Overall bit rate : 10.3 Mb/s
Writing library : Lavf58.29.100

Video
ID : 1
Format : AVC
Duration : 2 h 48 min
Bit rate : 10 000 kb/s
Width : 1 920 pixels
Height : 1 080 pixels
aspect ratio : 16:9
Frame rate mode : Constant
Frame rate : 29.970 FPS Bound For Glory 2020
Color space : YUV
Chroma sampling : 4:2:0
Bit depth : 8 bits
Scan type : Progressive
Bits/(Pixel*Frame) : 0.161
Stream size : 11.6 GiB
Color range : Limited
Color primaries : BT.709
Transfer characteristics : BT.709
Matrix coefficients : BT.709

Bound For Glory 2020

Audio
ID : 2
Format : AC-3
Format/Info : Audio Coding 3
name : Dolby Digital
Codec ID : A_AC3
Duration : 2 h 48 min
Bit rate mode : Constant
Bit rate : 256 kb/s
Channel(s) : 2 channels
Channel layout : L R
Sampling rate : 48.0 kHz
Frame rate : 31.250 FPS
Compression mode : Lossy
Delay relative to video : -5 ms
Stream size : 309 MiB (2%)
Title : Stereo
Service kind : Complete Main
Default : Yes
Forced : No

 

 

 

Watch iMPACT Wrestling Bound For Glory 2020 PPV

 

 

 

Watch online

 

 

Server 1

 

 

 

 

Bound For Glory 2020

 

Bound For Glory 2020

 

 

 

Server-3

 

 

 

watch now

 

 

 

 

Uploaded By Site DX-TV.com

Bound For Glory 2020

 

Download Links with premium High Speed   

 

 

nitroflare.com

 

 

 

rapidgator.net

 

dx-tv.com

 

urlfree.net

Leave a Reply

Your email address will not be published. Required fields are marked *

This site uses Akismet to reduce spam. Learn how your comment data is processed.