Watch Impact Wrestling Bash at the Brewery 2 PPV 2020-01-10 540p DX-TV

Watch Impact Wrestling Bash at the Brewery 2 PPV 2020-01-10 540p DX-TV

 

 

Impact Wrestling

 

 

 

 

dx-tv.com

 

 

 

 

Watch Impact Wrestling Bash at the Brewery 2 PPV 2020-01-10 540p DX-TV

 

 

 

 

 

Complete name : D:\WWE\Impact Wrestling Bash at the Brewery 2 2020-01-10 540p WEB x264 DX-TV.mp4
Format : MPEG-4
Format profile : Base Media 
Codec ID : mp42 (mp42)
File size : 2.45 GiB
Duration : 2 h 45 min
Overall bit rate : 2 124 kb/s

Video
ID : 1
Format : AVC
Duration : 2 h 45 min
Bit rate : 1 990 kb/s
Width : 960 pixels
Height : 540 pixels
Display aspect ratio : 16:9
Frame rate mode : Constant
Frame rate : 30.000 FPS
Color space : YUV
Chroma subsampling : 4:2:0
Bit depth : 8 bits
Scan type : Progressive
Bits/(Pixel*Frame) : 0.128
Stream size : 2.30 GiB (94%)
Language : English
Codec configuration box : avcC

Audio
ID : 2
Format : AAC LC
Codec ID : mp4a-40-2
Duration : 2 h 45 min
Bit rate mode : Constant
Bit rate : 127 kb/s
Channel(s) : 2 channels
Channel layout : L R
Sampling rate : 44.1 kHz
Frame rate : 43.066 FPS (1024 SPF)
Compression mode : Lossy
Stream size : 150 MiB (6%)
Title : Stereo
Language : English
Default : Yes
Alternate group : 1

 

 

 

 

Watch online

 

 

Server 1

 

 

watch now

 

 

 

 

 

 

Watch Impact Wrestling Bash at the Brewery 2 PPV 2020-01-10 540p DX-TV

 

 

 

Uploaded By Site DX-TV.com

 

 

 

 

 

Download VIP Members FTP server Download 1 Link and Free Links 

 

 

 

Limited Time will be removed after 90 days if you need available again pm email admin

 

[member]

FTP Link Download high speed

[/member]

1fichier.com 

 

 

dailyuploads.net

 

 

earn4files.com

free.fr

 

Download with premium account Links 

 

 

nitroflare.com

 

 

rapidgator.net

 

 

uploaded.net

 

 

 

 

 

 

 

 

 

You May Also Like