Watch iMPACT Wrestling Arlington Brawl and Fanfest 2020 01 11 1080p

Watch Online iMPACT Wrestling 2020 01 11 Arlington Brawl and Fanfest 1080p DX-TV

 

 

iMPACT Wrestling

 

 

 

 

dx-tv.com

 

 

 

 

Watch iMPACT Wrestling Arlington Brawl and Fanfest 2020 01 11 1080p

 

 

 

 

 

Complete name : iMPACT.Wrestling.2020.01.11.Arlington.Brawl.and.Fanfest.1080p.mp4
Format : MPEG-4
Format profile : Base Media
File size : 4.60 GiB
Duration : 2 h 46 min
Overall bit rate mode : Variable
Overall bit rate : 3 948 kb/s

Video
ID : 2
Format : AVC
Duration : 2 h 46 min
Source duration : 2 h 46 min
Bit rate : 3 845 kb/s
Width : 1 912 pixels
Original width : 1 920 pixels
Height : 1 088 pixels
Original height : 1 080 pixels
Display aspect ratio : 16:9
Frame rate mode : Variable
Frame rate : 29.970 (29970/1000) FPS
Minimum frame rate : 0.434 FPS
Maximum frame rate : 60.606 FPS
Original frame rate : 30.000 FPS
Color space : YUV
Chroma subsampling : 4:2:0
Bit depth : 8 bits
Scan type : Progressive
Bits/(Pixel*Frame) : 0.062
Stream size : 4.47 GiB (97%)
Source stream size : 4.47 GiB (97%)
mdhd_Duration : 9998347
Codec configuration box : avcC

Audio
ID : 1
Format : AAC LC
Format/Info : Advanced Audio Codec Low Complexity
Codec ID : mp4a-40-2
Duration : 2 h 46 min
Bit rate mode : Variable
Bit rate : 93.1 kb/s
Maximum bit rate : 440 kb/s
Channel(s) : 2 channels
Channel layout : L R
Sampling rate : 48.0 kHz
Frame rate : 46.875 FPS (1024 SPF)
Compression mode : Lossy
Stream size : 111 MiB (2%)
mdhd_Duration : 9999360

 

 

 

 

 

 

Watch online

 

Server 1

 

 

 

 

watch now

 

 

Watch iMPACT Wrestling Arlington Brawl and Fanfest 2020 01 11 1080p

 

 

 

Uploaded By Site DX-TV.com

 

 

 

 

Download VIP Members FTP Link and Free Links 

 

 

Limited Time will be removed after 30 days if you need available again pm email admin

 

This section is only available to registered users.

 

 

earn4files.com

 

 

dl.free.fr

 

 

Download with premium account Links 

 

 

nitroflare.com

 

 

rapidgator.net

 

 

uploaded.net

 

 

 

 

 

Categories



Archives