Watch iMPACT Wrestling 2021 01 26 1080p HDTV Star DX-TV

Watch iMPACT Wrestling 2021 01 26 1080p HDTV Star DX-TV

Watch iMPACT Wrestling 2021

 iMPACT Wrestling 2021 01 26

 

Download Links with premium High Speed   

 

nitroflare.com

http://shrt10.com/PpFFWfyz

 

 

rapidgator.net

http://shrt10.com/dWXU6Yx

 

 

 

 

Watch iMPACT Wrestling online

 

Server 1

 

 

 

 

Watch iMPACT Wrestling

 

 

 

 

Server-2

 

 

 

 

watch now

 

 

Uploaded By Site DX-TV.com

 

 

Complete name : iMPACT.Wrestling.2021.01.26.1080p.HDTV.x264-Star.mkv
Format : Matroska
Format version : Version 4
File size : 4.93 GiB
Duration : 1 h 26 min
Overall bit rate : 8 130 kb/s

Video
ID : 1
Format : AVC
Format/Info : Advanced Video
Duration : 1 h 26 min
Bit rate : 8 000 kb/s
Width : 1 920 pixels
Height : 1 080 pixels
Display aspect ratio : 16:9
Frame rate mode : Constant
Frame rate : 29.970 FPS
Color space : YUV
Chroma subsampling : 4:2:0
Bit depth : 8 bits
Scan type : Progressive
Bits/(Pixel*Frame) : 0.129
Stream size : 4.76 GiB (96%)
Forced : No
Color range : Limited
Color primaries : BT.709
Transfer characteristics : BT.709
Matrix coefficients : BT.709

Watch iMPACT Wrestling

Audio
ID : 2
Format : AC-3
Format/Info : Audio Coding 3
Commercial name : Dolby Digital
Codec ID : A_AC3
Duration : 1 h 26 min
Bit rate mode : Constant
Bit rate : 128 kb/s
Channel(s) : 2 channels
Channel layout : L R
Sampling rate : 48.0 kHz
Frame rate : 31.250 FPS
Compression mode : Lossy
Delay relative to video : -5 ms
Stream size : 79.5 MiB (2%)
Title : Stereo
Service kind : Complete Main
Default : Yes
Forced : No

Watch iMPACT Wrestling

Audio
ID : 2
Format : AC-3
Format/Info : Audio Coding 3
Commercial name : Dolby Digital
Codec ID : A_AC3
Duration : 1 h 26 min
Bit rate mode : Constant
Bit rate : 128 kb/s
Channel(s) : 2 channels
Channel layout : L R
Sampling rate : 48.0 kHz
Frame rate : 31.250 FPS
Compression mode : Lossy
Delay relative to video : -5 ms
Stream size : 79.5 MiB (2%)
Title : Stereo
Service kind : Complete Main
Default : Yes
Forced : No

Watch iMPACT Wrestling

 

https://dx-tv.com/

You May Also Like

Leave a Reply

Your email address will not be published. Required fields are marked *

This site uses Akismet to reduce spam. Learn how your comment data is processed.