Watch iMPACT Wrestling 2020 03 03 720p

iMPACT Wrestling 2020 03 03 720p NWCHD DX-TV

Watch

 

 iMPACT Wrestling
 

Watch iMPACT Wrestling 2020 03 03 720p

 

 

 

Complete name : iMPACT.Wrestling.2020.03.03.720p.HDTV.x264-NWCHD.mp4
Format : MPEG-4
Format profile : Base Media
Codec ID : isom
File size : 2.84 GiB
Duration : 1 h 26 min
Overall bit rate : 4 686 kb/s
Writing application : Lavf58.27.103

Video
ID : 1
Format : AVC
Format/Info : Watch
Format profile : [email protected]
Codec ID/Info : Watch
Duration : 1 h 26 min
Bit rate : 4 500 kb/s
Width : 1 280 pixels
Height : 720 pixels
Display aspect ratio : 16:9
Frame rate mode : Variable
Frame rate : 29.970 (30000/1001) FPS
Minimum frame rate : 29.155 FPS
Maximum frame rate : 29.970 FPS
Color space : YUV
Chroma subsampling : 4:2:0
Bit depth : 8 bits
Scan type : Watch
Bits/(Pixel*Frame) : 0.163
Stream size : 2.72 GiB (96%)
Color primaries : BT.709
Transfer characteristics : BT.709
Matrix coefficients : BT.709
Codec configuration box : avcC

Audio
ID : 2
Format : AAC LC
Format/Info : Watch
Codec ID : mp4a-40-2
Duration : 1 h 26 min
Bit rate mode : Watch
Bit rate : 192 kb/s
Channel(s) : 2 channels
Channel layout : L R
Sampling rate : 48.0 kHz
Frame rate : 46.875 FPS (1024 SPF)
Compression mode : Lossy
Stream size : 119 MiB (4%)
Title : Stereo
Default : Watch

 

 

 

Watch online

 

Server 1

 

 

 

 

watch now

 

 

 

 

Server 2

 

 

 

watch now

 

 

 

Watch iMPACT Wrestling 2020 03 03 720p

 

 

Uploaded By Site DX-TV.com

 

 

DDL.to

https://shrt10.com/6DfUh9gDo
https://shrt10.com/viajO

 

rockfile.co

https://shrt10.com/C1uJL73
https://shrt10.com/dg89ZLa

 

 

Download with premium account LinksĀ 

 

 

Keep2Share

 

 

mixdrop.co

 

 

alfafile.net

 

 

nitroflare.com

 

 

rapidgator.net

 

 

uploadgig.com

 

 

 

dx-tv.com