Watch iMPACT Wrestling 2020 01 07 HDTV 1080i DX-TV

Watch iMPACT Wrestling 2020 01 07 HDTV 1080i DX-TV

 

 

WWE Raw

 

 

 

 

dx-tv.com

 

 

Complete name : Impact Wrestling 2020-01-07 1080i HDTV H264 DX-TV.mp4
Format : MPEG-4
Format profile : Base Media
File size : 6.84 GiB
Duration : 1 h 59 min
Overall bit rate : 8 171 kb/s
Writing application : Lavf58.25.100

Video
ID : 1
Format : AVC
Format/Info : Advanced Video Codec
Codec ID/Info : Advanced Video Coding
Duration : 1 h 59 min
Bit rate : 8 000 kb/s
Width : 1 920 pixels
Height : 1 080 pixels
Display aspect ratio : 16:9
Frame rate mode : Constant
Frame rate : 30.000 FPS
Color space : YUV
Chroma subsampling : 4:2:0
Bit depth : 8 bits
Scan type : Progressive
Bits/(Pixel*Frame) : 0.129
Stream size : 6.70 GiB (98%)

Audio
ID : 2
Format : AAC LC
Format/Info : Advanced Audio Codec Low Complexity
Codec ID : mp4a-40-2
Duration : 1 h 59 min
Bit rate mode : Constant
Bit rate : 160 kb/s
Channel(s) : 2 channels
Channel layout : L R
Sampling rate : 44.1 kHz
Frame rate : 43.066 FPS (1024 SPF)
Compression mode : Lossy
Stream size : 137 MiB (2%)
Default : Yes
Alternate group : 1

 

 

 

Note :

 

This resl from recording by DX-TV 

This video including ADS i don’t have any time to remove ads

 

 

Watch online

 

Server 1

 

 

 

 

 

 

 

Server 2

 

 

 

 

 

 

 

 

 

 

Server–3

 

 

 

 

 

 

 

 

Uploaded By Site DX-TV.com

 

 

 

 

Download VIP Members FTP Link and Free Links 

 

 

Limited Time will be removed after 30 days if you need available again pm email admin

 

This section is only available to registered users.

 

 

1fichier.com 

 

https://shrt10.com/C3ryu7

https://shrt10.com/SfZz

 

 

earn4files.com

 

https://shrt10.com/4obeKi2v

https://shrt10.com/K0GFWm

 

dl.free.fr

 

https://shrt10.com/0Qeii8od

https://shrt10.com/hnPN8

 

 

 

Download with premium account Links 

 

 

nitroflare.com

 

 

 

rapidgator.net

 

 

uploaded.net

 

https://shrt10.com/vFIzLbpG

https://shrt10.com/B9NbD4

 

 

Categories

ADS



Archives