Watch iMPACT Wrestling 2019 1080p Turning Point

Watch iMPACT Wrestling 2019 1080p Turning Point DX-TV

 

 

 

 

 

 

dx-tv.com

 

 

 

 

Watch iMPACT Wrestling 2019 1080p Turning Point

 

 

 

 

 

Complete name : iMPACT.Wrestling.2019.11.09.Turning.Point.FITE.1080p.WEB.h264-HEEL.mp4
Format : MPEG-4
Format profile : Base Media
File size : 5.78 GiB
Duration : 3 h 13 min
Overall bit rate : 4 285 kb/s
Writing application : Lavf58.30.100

Video
ID : 1
Format : AVC
Format/Info : Advanced Video Codec
Codec ID/Info : Advanced Video Coding
Duration : 3 h 13 min
Bit rate : 4 146 kb/s
Nominal bit rate : 4 800 kb/s
Width : 1 920 pixels
Height : 1 080 pixels
Display aspect ratio : 16:9
Frame rate mode : Variable
Frame rate : 29.970 (29970/1000) FPS
Minimum frame rate : 7.463 FPS
Maximum frame rate : 18 000.000 FPS
Color space : YUV
Chroma subsampling : 4:2:0
Bit depth : 8 bits
Scan type : Progressive
Bits/(Pixel*Frame) : 0.067
Stream size : 5.59 GiB (97%)
Writing library : x264 core 152

Audio
ID : 2
Format : AAC LC
Codec ID : mp4a-40-2
Duration : 3 h 12 min
Bit rate mode : Constant
Bit rate : 128 kb/s
Channel(s) : 2 channels
Channel layout : L R
Sampling rate : 48.0 kHz
Frame rate : 46.875 FPS (1024 SPF)
Compression mode : Lossy
Stream size : 177 MiB (3%)
Default : Yes

 

 

 

 

 

 

Watch online

 

 

Waiting finish converting video

 

 

Server 1

 

 

 

 

 

 

 

 

 

 

 

 

 

Server 2

 

 

 

 

 

 

 

 

 

 

 

 

 

 

 

Uploaded By Site DX-TV.com

 

 

 

 

 

Watch iMPACT Wrestling 2019 1080p Turning Point

 

 

 

 

 

Recommended For Free

 

 

 

 

earn4files.com

 

 

 

 

Download with high speed with Premium account

 

 

 

 

nitroflare.com

 

 

 

rapidgator.net

 

 

 

uploaded.net

 

 

 

 

 

Leave a Reply

Your email address will not be published. Required fields are marked *

This site uses Akismet to reduce spam. Learn how your comment data is processed.