Watch iMPACT Wrestling 2019 04 26 WEB HEEL /720p full show free mp4

 

 

 

 

blank
 

 

 

dx-tv.com

 

 

 

 

 
Complete name : iMPACT.Wrestling.2019.04.26.720p.WEB.h264-HEEL.mp4
Format : MPEG-4
Format profile : Base Media
Codec ID : isom (isom/iso2/avc1/mp41)
File size : 2.92 GiB
Duration : 1 h 31 min
Overall bit rate mode : Constant
Overall bit rate : 4 569 kb/s
Writing application : Lavf58.26.101

Video
ID : 1
Format : AVC
Format/Info : Advanced Video Codec
Format settings, Reference : 2 frames
Codec ID : avc1
Codec ID/Info : Advanced Video Coding
Duration : 1 h 31 min
Bit rate mode : Constant
Bit rate : 4 500 kb/s
Width : 1 280 pixels
Height : 720 pixels
Display aspect ratio : 16:9
Frame rate mode : Constant
Frame rate : 29.970 (30000/1001) FPS
Color space : YUV
Chroma subsampling : 4:2:0
Bit depth : 8 bits
Scan type : Progressive
Bits/(Pixel*Frame) : 0.163
Stream size : 2.87 GiB (98%)
Codec configuration box : avcC

Audio
ID : 2
Format : AAC LC SBR
Commercial name : HE-AAC
Format settings : Implicit
Codec ID : mp4a-40-2
Duration : 1 h 31 min
Bit rate mode : Constant
Bit rate : 62.8 kb/s
Channel(s) : 2 channels
Channel layout : L R
Sampling rate : 44.1 kHz
Frame rate : 21.533 FPS (2048 SPF)
Compression mode : Lossy
Stream size : 41.1 MiB (1%)
Default : Yes
Alternate group : 1

 

 

 

 

 


 

 

 

Watch iMPACT Wrestling 2019 04 26 WEB HEEL /720p full show free mp4

 

 

 

 

Watch online

 

 

Waiting finish converting video

 

 

Server 1

 

 

 

 

 


 

 

 


 

 


 

 

 

Uploaded By Site DX-TV.com

 

 

 

open rar file to see this password

 

 

 

 

The password : DX-TV.com

 

 

 

 

Uploaded.net + rapidgator.net + DDL.to + katfile.com

 

 

 

 


 

 

https://shrt10.com/UaMHgN
 

 

https://shrt10.com/ieTCZLi
 

 

https://shrt10.com/vJIl
 

 

https://shrt10.com/EbRM1
 

 

https://shrt10.com/KfEJ9

 

 

 

 

 

 

Watch iMPACT Wrestling 2019 04 26 WEB HEEL /720p full show free mp4