Watch iMPACT Wrestling 2019 04 12 WEB HEEL /720p

 

 

 

 


 

 

 

dx-tv.com

 

 

 
Complete name : iMPACT.Wrestling.2019.04.12.WEB.h264-HEEL.mp4
Format : MPEG-4
Format profile : Base Media
Codec ID : isom
File size : 1.18 GiB
Duration : 1h 30mn
Overall bit rate : 1 868 Kbps
Writing application : Lavf58.26.101

Video
ID : 1
Format : AVC
Format/Info : Advanced Video Codec
Format settings, CABAC : No
Format settings, ReFrames : 1 frame
Codec ID : avc1
Codec ID/Info : Advanced Video Coding
Duration : 1h 30mn
Bit rate mode : Constant
Bit rate : 1 800 Kbps
Width : 960 pixels
Height : 540 pixels
Display aspect ratio : 16:9
Frame rate mode : Constant
Frame rate : 29.970 fps
Color space : YUV
Chroma subsampling : 4:2:0
Bit depth : 8 bits
Scan type : Progressive
Bits/(Pixel*Frame) : 0.116
Stream size : 1.14 GiB (96%)

Audio
ID : 2
Format : AAC
Format/Info : Advanced Audio Codec
Format profile : HE-AAC / LC
Codec ID : 40
Duration : 1h 30mn
Bit rate mode : Constant
Bit rate : 62.8 Kbps
Channel(s) : 2 channels
Channel positions : Front: L R
Sampling rate : 44.1 KHz / 22.05 KHz
Compression mode : Lossy
Stream size : 40.7 MiB (3%)
 

 

 


 

 

 

Watch iMPACT Wrestling 2019 04 12 WEB HEEL /720p

 

 

 

 

Watch online

 

 

Waiting finish converting video

 

 

Server 1

 

 

 

 

 

 

 

 

 


 

 

 

 

Server 2

 

 

 

 


 


 

 

 

Uploaded By Site DX-TV.com

 

 

 

open rar file to see this password

 

 

 

 

The password : DX-TV.com

 

 

 

 

Uploaded.net + rapidgator.net

 

 

 

 


 

 
https://shrt10.com/jWuZ
 

 

https://shrt10.com/zBb7
 

 

https://shrt10.com/pREd
 

 

https://shrt10.com/BaXjtEc
 

 

 

Watch iMPACT Wrestling 2019 04 12 WEB HEEL /720p