Watch iMPACT Wrestling 2018 09 06 WEB HEEL /720p

Watch iMPACT Wrestling 2018 09 06 WEB HEEL /720p

 

 

 

 


 

 

 

dx-tv.com

 

 

 

 

 

Complete name : iMPACT.Wrestling.2018.09.06.WEB.h264-HEEL.mp4
Format : MPEG-4
Format profile : Base Media
File size : 1.19 GiB
Duration : 1 h 31 min
Overall bit rate mode : Constant
Overall bit rate : 1 868 kb/s
Writing application : Lavf58.2.103

Video
ID : 1
Format : AVC
Format/Info : Advanced Video Codec
Codec ID/Info : Advanced Video Coding
Duration : 1 h 31 min
Bit rate mode : Constant
Bit rate : 1 800 kb/s
Width : 960 pixels
Height : 540 pixels
Display aspect ratio : 16:9
Frame rate mode : Constant
Frame rate : 29.970
Color space : YUV
Chroma subsampling : 4:2:0
Bit depth : 8 bits
Scan type : Progressive
Bits/(Pixel*Frame) : 0.116
Stream size : 1.15 GiB (96%)

Audio
ID : 2
Format : AAC
Format/Info : Advanced Audio Codec
Format profile : HE-AAC / LC
Format settings : Implicit
Codec ID : mp4a-40-2
Duration : 1 h 31 min
Bit rate mode : Constant
Bit rate : 62.8 kb/s
Channel(s) : 2 channels
Channel positions : Front: L R
Sampling rate : 44.1 kHz / 22.05 kHz
Frame rate : 21.533 FPS
Compression mode : Lossy
Stream size : 40.9 MiB (3%)
Default : Yes
Alternate group : 1

 

 

 

 

 

 
Title: iMPACT.Wrestling.2018.09.06.720p.WEB.h264-HEEL
Released: 2018.09.06
Source: WEB
Resolution: 1280 x 720 @ 29.970 FPS
Video: H.264 @ 4500 kbps
Audio: HE-AAC @ 64 kbps
Size: 2.91 GB
Runtime: 1h 31mn
 

 

 

 

 

 

 

 

 

Watch iMPACT Wrestling 2018 09 06 WEB HEEL /720p

 

 

 

 

Watch online

 

 

Waiting finish converting video

 

 

Server 1

 

 

 

 

 

 

 

 

 

 

 

 

 

 

 

Server 2

 

 

 

 

 

 

 


 

 

 

 

 

 

Uploaded By Site DX-TV.com

 

 

 

open rar file to see this password

 

 

 

 

The password : DX-TV.com

 

 

 

 

 

 

Uploaded.net + rapidgator.net

 

 

 

 

 

 
http://shrt10.com/AlJe1
 

 

 

http://shrt10.com/UIdR2V
 

 

 

http://shrt10.com/Y5GU95y0

 

 

 
http://shrt10.com/z5YKIdU
 

 

 

 

 

 

Watch iMPACT Wrestling 2018 09 06 WEB HEEL /720p

Leave a Reply

This site uses Akismet to reduce spam. Learn how your comment data is processed.

Support HVIPS

Please Disable Ad-Block To View This site. just help us to continue this work