Watch iMPACT Wrestling 2018 08 30 HDTV Star

Watch iMPACT Wrestling 2018 08 30 HDTV Star

 

 

 

 


 

 

dx-tv.com

 

 

 

 

 

Complete name : iMPACT.Wrestling.2018.08.30.HDTV.x264-Star.mp4
Format : MPEG-4
File size : 957 MiB
Duration : 1 h 31 min
Overall bit rate mode : Variable
Overall bit rate : 1 464 kb/s
Encoded date : UTC 2018-08-30 15:53:20
Tagged date : UTC 2018-08-30 15:53:20

Video
ID : 1
Format : AVC
Format/Info : Advanced Video Codec
Codec ID/Info : Advanced Video Coding
Duration : 1 h 31 min
Bit rate : 1 300 kb/s
Width : 712 pixels
Height : 400 pixels
Display aspect ratio : 16:9
Frame rate mode : Constant
Frame rate : 29.970
Color space : YUV
Chroma subsampling : 4:2:0
Bit depth : 8 bits
Scan type : Progressive
Bits/(Pixel*Frame) : 0.152
Stream size : 848 MiB (89%)

Audio
ID : 2
Format : AAC
Format/Info : Advanced Audio Codec
Format profile : LC
Codec ID : mp4a-40-2
Duration : 1 h 31 min
Bit rate mode : Variable
Bit rate : 160 kb/s
Channel(s) : 2 channels
Channel positions : Front: L R
Sampling rate : 48.0 kHz
Frame rate : 46.875 FPS
Compression mode : Lossy
Stream size : 104 MiB (11%)
Title : Stereo / Stereo
Default : Yes
Alternate group : 1
Encoded date : UTC 2018-08-30 15:53:20
Tagged date : UTC 2018-08-30 15:53:20

 

 

 

Watch iMPACT Wrestling 2018 08 30 HDTV Star

 

 

 

 

Watch online

 

 

Waiting finish converting video

 

 

Server 1

 

 

 

 

 

 

 

 

 

 

 

 

 

 

Server 2

 

 

 

 

 

 

 


 

 

 

 

Uploaded By Site DX-TV.com

 

 

 

open rar file to see this password

 

 

 

 

The password : DX-TV.com

 

 

 

 

 

 

Uploaded.net + rapidgator.net

 

 

 

 

 

 

http://shrt10.com/RsYYhF8n

 

 

 

 

 

http://shrt10.com/njX9fvQ

 

 

 

 

 

 

 

 

 

Watch iMPACT Wrestling 2018 08 30 HDTV Star