Watch Impact wrestling Salute to the Troops PPV 2019/05/11 720p WEB HD DX-TV free full show online

 

 

 

 


 

 

dx-tv.com

 

 

 

 

 

[EVENT]………..: Impact Salute to the Troops PPV 2019/05/11 720p WEB HD DX-TV mp4
[RELEASED]……..: 2019.05.11
[SOURCE]……….: WEB DL
[CONTAINER]…….: mp4
[SIZE]…………: 3.65 GB
[Capper Group]….: DX-TV
[Duration]……..: 2 h 24 m
[RESOLUTION]……: 1280 x 720 {16:9}@ 29.970 FPS
[VIDEO]………..: x264 @ 3500 kbps
[AUDIO]………..: AAC @ 129 kbps
[language]……..: English

 

 

Complete name : Impact wrestling Salute to the Troops PPV 2019-05-11 720p WEB HD DX-TV.mp4
Format : MPEG-4
Format profile : Base Media
Codec ID : isom (mp41/avc1)
File size : 3.66 GiB
Duration : 2 h 24 min
Overall bit rate mode : Variable
Overall bit rate : 3 623 kb/s
Encoded date : UTC 2019-05-12 02:55:46
Tagged date : UTC 2019-05-12 02:55:46
Writing application : vlc 3.0.6 stream output
Comment : QuickTime 6.0 or greater

Video
ID : 2
Format : AVC
Format/Info : Advanced Video Codec
Codec ID : avc1
Codec ID/Info : Advanced Video Coding
Duration : 2 h 24 min
Bit rate : 3 485 kb/s
Width : 1 280 pixels
Height : 720 pixels
Display aspect ratio : 16:9
Frame rate mode : Variable
Frame rate : 29.970 (29970/1000) FPS
Color space : YUV
Chroma subsampling : 4:2:0
Bit depth : 8 bits
Scan type : Progressive
Bits/(Pixel*Frame) : 0.126
Stream size : 3.52 GiB (96%)
Language : English
Encoded date : UTC 2019-05-12 02:55:46
Tagged date : UTC 2019-05-12 02:55:46
Codec configuration box : avcC

Audio
ID : 1
Format : AAC LC
Format/Info : Advanced Audio Codec Low Complexity
Codec ID : mp4a-40-2
Duration : 2 h 24 min
Bit rate mode : Variable
Bit rate : 129 kb/s
Maximum bit rate : 399 kb/s
Channel(s) : 2 channels
Channel layout : L R
Sampling rate : 44.1 kHz
Frame rate : 43.066 FPS (1024 SPF)
Compression mode : Lossy
Stream size : 133 MiB (4%)
Language : English
Encoded date : UTC 2019-05-12 02:55:46
Tagged date : UTC 2019-05-12 02:55:46
mdhd_Duration : 8650501

 

 

 

 

Watch Impact wrestling Salute to the Troops PPV 2019/05/11 720p WEB HD DX-TV free full show online

 

 

 

 

Watch online

 

 

Waiting finish converting video

 

 

Server 1

 

 

 

 

 


 

 

 

Server 2

 

 

 

 

 


 

Uploaded By Site DX-TV.com

 

 

 

open rar file to see this password

 

 

 

 

The password : DX-TV.com

 

 

 


 
https://shrt10.com/ZcqkEvr
 

 
https://shrt10.com/zLoUgP
 

 
https://shrt10.com/22kG9J
 

 
https://shrt10.com/p7o8T

 

 

 

 

Watch Impact wrestling Salute to the Troops PPV 2019/05/11 720p WEB HD DX-TV free full show online