Watch ICW New York No Holds Barred 2020-01-04 DX-TV

Watch ICW New York No Holds Barred 2020-01-04 540p DX-TV

 

 

ICW

 

 

 

 

dx-tv.com

 

 

 

 

Watch ICW New York No Holds Barred 2020-01-04 DX-TV

 

 

 

 

 

Complete name : ICW New York No Holds Barred 2020-01-04 540p WEB x264 DX-TV.mp4
Format : MPEG-4
Format profile : Base Media
Codec ID : mp42 (mp42)
File size : 2.23 GiB
Duration : 3 h 14 min
Overall bit rate : 1 640 kb/s

Video
ID : 1
Format : AVC
Duration : 3 h 14 min
Bit rate : 1 505 kb/s
Width : 960 pixels
Height : 540 pixels
Display aspect ratio : 16:9
Frame rate mode : Constant
Frame rate : 30.000 FPS
Color space : YUV
Chroma subsampling : 4:2:0
Bit depth : 8 bits
Scan type : Progressive
Bits/(Pixel*Frame) : 0.097
Stream size : 2.05 GiB (92%)
Language : English

Audio
ID : 2
Format : AAC LC
Codec ID : mp4a-40-2
Duration : 3 h 14 min
Bit rate mode : Constant
Bit rate : 128 kb/s
Channel(s) : 2 channels
Channel layout : L R
Sampling rate : 44.1 kHz
Frame rate : 43.066 FPS (1024 SPF)
Compression mode : Lossy
Stream size : 178 MiB (8%)
Title : Stereo
Language : English
Default : Yes
Alternate group : 1

 

 

 

 

 

 

Watch online

 

 

 

Server 1

 

 

 

watch now

 

 

Watch ICW New York No Holds Barred 2020-01-04 DX-TV

 

 

 

Uploaded By Site DX-TV.com

 

 

 

 

Download VIP Members FTP Link and Free Links 

 

 

Limited Time will be removed after 90 days if you need available again pm email admin

 

This section is only available to registered users.

1fichier.com 

 

 

dailyuploads.net

 

 

dl.free.fr

 

 

 

 

Download with premium account Links 

 

 

earn4files.com

 

 

nitroflare.com

 

 

rapidgator.net

 

 

uploaded.net

 

 

 

 

 

 

 

 

 

Categories

ADS



Archives