Watch HMW Inspire Pro 2019 08 10 Texas Death Match

 

Free Watch HMW Inspire Pro 2019 08 10 Texas Death Match Massacre 720p NCMP DX-TV Full Show online

 

 

 

 

 

 

 

 

dx-tv.com

 

 

 

shrt10.com

 

 

 

 

 

 

 

 

 

Watch HMW Inspire Pro 2019 08 10 Texas Death Match

 

 

 

 

 

Shrt10.com

now we have new very high rate

we are paying with up to $25/1000 visits.​

you can start now

Minimum payment $5

  • you can earn up to 25 $ / 1000 unique views.

  • Payout via PayPal, Webmoney, BitCoins.

  • Real time stats, updated every 15 minute

  • You earn for all countries traffic

  • Payments max weekly 

  • Advanced statistics

 

 

 

 

 

 

 

 

Watch HMW Inspire Pro 2019 08 10 Texas Death Match

 

 

 

 

 

Complete name : HMW.Inspire.Pro.2019.08.10.Texas.DeathMatch.Massacre.720p.WEB.h264-NCMP.mp4
Format : MPEG-4
Format profile : Base Media
Codec ID : isom (isom/iso2/avc1/mp41)
File size : 2.36 GiB
Duration : 2 h 29 min
Overall bit rate : 2 261 kb/s
Writing application : Lavf57.72.101

Video
ID : 1
Format : AVC
Format/Info : Advanced Video Codec
Codec ID/Info : Advanced Video Coding
Duration : 2 h 29 min
Duration_FirstFrame : -24 ms
Bit rate : 2 124 kb/s
Width : 1 280 pixels
Height : 720 pixels
Display aspect ratio : 16:9
Frame rate mode : Constant
Frame rate : 30.000 FPS
Color space : YUV
Chroma subsampling : 4:2:0
Bit depth : 8 bits
Scan type : Progressive
Bits/(Pixel*Frame) : 0.077
Stream size : 2.22 GiB (94%)
Codec configuration box : avcC

Audio
ID : 2
Format : AAC LC
Format/Info : Advanced Audio Codec Low Complexity
Codec ID : mp4a-40-2
Duration : 2 h 29 min
Bit rate mode : Constant
Bit rate : 128 kb/s
Channel(s) : 2 channels
Channel layout : L R
Sampling rate : 48.0 kHz
Frame rate : 46.875 FPS (1024 SPF)
Compression mode : Lossy
Stream size : 137 MiB (6%)
Default : Yes
Alternate group : 1

 

 

 

 

 

 

Watch online

 

 

Waiting finish converting video

 

 

Server 1

 

 

 

 

 

 

 

 

 

 

 

 

Server 2

 

 

 

 

 

 

 

 

 

 

 

 

 

Uploaded By Site DX-TV.com

 

 

 

Downloading Links

 

 

 

 

 

 

 

 

bitster.cz

 

 

 

nitroflare.com

 

 

 

rapidgator.net

 

 

 

 

uploaded.net

 

 

 

 

 

 

Leave a Reply

Your email address will not be published. Required fields are marked *