Watch Hitting the Highspots Ricochet 2017 Retrospective

Watch Hitting the Highspots Ricochet 2017 Retrospective

 

 

 

 

 

 

wwe

 

 

 

 

 

 

Hitting the Highspots: Ricochet 2017 Retrospective

Video Duration: 02:32:02

With the huge popularity of last years edition we decided to bring back Rob Naylor to sit down with with King Ricochet to discuss his amazing year of 2017.

This match-by-match discussion is super in depth and we go around the world with Ricochet on his journey. Ricochet has traveled to every corner of the globe this year and sits down with you to talk in depth about each match, each opponent, and what traveling is like for one of the busiest independent professional wrestlers in the world.

All the top promotions are discussed such as PWG, New Japan, What Culture, OTT, XWA and so many more!

This is a must watch for any Ricochet fan or anyone wanting to know what it is like to be a wrestling superstar!!
 

 

 

 

 

 

 

 
Complete name : Hitting the Highspots – Ricochet 2017 Retrospective.mp4
Format : MPEG-4
Format profile : Base Media
Codec ID : isom
File size : 1.66 GiB
Duration : 2h 32mn
Overall bit rate : 1 565 Kbps

Video
ID : 1
Format : AVC
Format/Info : Advanced Video Codec
Codec ID : avc1
Codec ID/Info : Advanced Video Coding
Duration : 2h 32mn
Bit rate mode : Variable
Bit rate : 1 494 Kbps
Width : 854 pixels
Height : 480 pixels
Display aspect ratio : 16:9
Frame rate mode : Constant
Frame rate : 29.970 fps
Color space : YUV
Chroma subsampling : 4:2:0
Bit depth : 8 bits
Scan type : Progressive
Bits/(Pixel*Frame) : 0.122
Stream size : 1.59 GiB (95%)

Audio
ID : 2
Format : AAC
Format/Info : Advanced Audio Codec
Format profile : LTP
Codec ID : 40
Duration : 2h 32mn
Bit rate mode : Variable
Bit rate : 63.6 Kbps
Maximum bit rate : 67.2 Kbps
Channel(s) : 3 channels
Channel positions : Front: L C R
Sampling rate : 64.0 KHz
Compression mode : Lossy
Stream size : 69.1 MiB (4%)

 

 

 

 

 

 

 

 

 

 

 

 

 

 

 

Watch Hitting the Highspots Ricochet 2017 Retrospective

 

 

 

 

Watch online

 

 

Waiting finish converting video

 

 

Server 1

 

 

 

 

 

 

 

 

 

 

 

 

 

 

 

 

 

 

 

 

 

 

 

 

Srver 2

 

 

 

 

 

 

 


 

 

 

 

 

 

 

 

 

 

 

 

Uploaded By Site DX-TV.com

 

 

 

open rar file to see this password

 

 

 

 

The password is : DX-TV.com

 

 

 

 

 

 

Uploaded.net + rapidgator.net

 

 

 

 

 

 

 

 

http://shrt10.com/D5qW2R

 

 

 

 

 

http://shrt10.com/SBbbxF

 

 

 

 

 

 

 

 

 

 

 

 

 

 

 

 

 

 

 

 

Watch Hitting the Highspots Ricochet 2017 Retrospective