Watch HBO Boxing Canelo Alvarez vs Gennady Golovkin 2 2018 1080p HDTV H264

Watch HBO Boxing Canelo Alvarez vs Gennady Golovkin 2 2018 1080p HDTV H264

 

 

 

 


 

 

 

dx-tv.com

 

 

 

 

Complete name : HBO.Boxing.Canelo.Alvarez.vs.Gennady.Golovkin.2.2018.1080p.HDTV.H264.mp4
Format : MPEG-4
Format profile : Base Media
File size : 2.30 GiB
Duration : 1 h 22 min
Overall bit rate : 4 007 kb/s

Video
ID : 1
Format : AVC
Format/Info : Advanced Video Codec
Codec ID/Info : Advanced Video Coding
Duration : 1 h 22 min
Bit rate : 3 612 kb/s
Width : 1 440 pixels
Height : 1 080 pixels
Display aspect ratio : 16:9
Frame rate mode : Variable
Frame rate : 58.978 FPS
Minimum frame rate : 11.823 FPS
Original frame rate : 29.970
Standard : Component
Color space : YUV
Chroma subsampling : 4:2:0
Bit depth : 8 bits
Scan type : Interlaced
Scan order : Top Field First
Bits/(Pixel*Frame) : 0.039
Stream size : 2.07 GiB (90%)
Color range : Limited
Color primaries : BT.709
Transfer characteristics : BT.709
Matrix coefficients : BT.709

Audio
ID : 2
Format : AC-3
Codec ID : ac-3
Duration : 1 h 22 min
Bit rate mode : Constant
Bit rate : 384 kb/s
Channel(s) : 6 channels
Channel positions : Front: L C R
Sampling rate : 48.0 kHz
Frame rate : 31.250 FPS
Bit depth : 16 bits
Compression mode : Lossy
Stream size : 225 MiB (10%)
Service kind : Complete Main

 

 

 

 

Watch HBO Boxing Canelo Alvarez vs Gennady Golovkin 2 2018 1080p HDTV H264

 

 

 

 

Watch online

 

 

Waiting finish converting video

 

 

Server 1

 

 

 

 

 

 

 

 

 

 

 

 

 

 

 

 

 

Server 2

 

 

 

 

 

 

 


 

 

 

 

 

 

Uploaded By Site DX-TV.com

 

 

 

open rar file to see this password

 

 

 

 

The password : DX-TV.com

 

 

 

 

Uploaded.net + rapidgator.net

 

 

 

 

 

http://shrt10.com/GE1YW7sR

 

 

 

 

 
http://shrt10.com/4VN3
 

 

 

 

 

 

 

 

Watch HBO Boxing Canelo Alvarez vs Gennady Golovkin 2 2018 1080p HDTV H264