Watch H2O No Pity For The Weak 2021 01 23 720p DX-TV

Watch H2O No Pity For The Weak 2021 01 23 720p DX-TV

Watch H2O No Pity

 Watch H2O No Pity

 

Download Links with premium High Speed   

 

 

dropapk.to

http://shrt10.com/NHTVf3rZ

 

 

nitroflare.com

http://shrt10.com/D3a27

 

 

rapidgator.net

http://shrt10.com/LaQwfC6VN

 

 

uploaded.net

http://shrt10.com/HQGAlA

 

 

 

Watch online

 

Server 1

 

 

 

 

watch now

 

 

 

 

Server-2

 

 

 

 

watch now

 

 

Uploaded By Site DX-TV.com

 

 

H20 No Pity For The Weak was a professional wrestling event promoted by H20 Wrestling.

It took on January 23, 2021 at the H20 Wrestling Center in Williamstown,

New Jersey. It was broadcast on independentwrestling.tv

Complete name : H2O.2021.01.23.No.Pity.For.The.Weak.720p.WEB.h264.mp4
Format : MPEG-4
Format profile : Base Media
Codec ID : isom (mp41/avc1)
File size : 2.05 GiB
Duration : 2 h 56 min
Overall bit rate mode : Variable
Overall bit rate : 1 666 kb/s

Watch H2O No Pity

Video
ID : 2
Format : AVC
Format/Info : Advanced Video
Duration : 2 h 56 min
Source duration : 2 h 56 min
Bit rate : 1 536 kb/s
Width : 1 280 pixels
Height : 720 pixels
Display aspect ratio : 16:9
Frame rate mode : Variable
Frame rate : 29.970 (29970/1000) FPS
Minimum frame rate : 29.961 FPS
Maximum frame rate : 29.973 FPS
Color space : YUV
Chroma subsampling : 4:2:0
Bit depth : 8 bits
Scan type : Progressive
Bits/(Pixel*Frame) : 0.056
Stream size : 1.88 GiB (92%)
mdhd_Duration : 10591759
Codec configuration box : avc

Watch H2O No Pity

Audio
ID : 1
Format : AAC LC
Format/Info : Advanced Audio
Codec ID : mp4a-40-2
Duration : 2 h 56 min
Bit rate mode : Variable
Bit rate : 127 kb/s
Maximum bit rate : 393 kb/s
Channel(s) : 2 channels
Channel layout : L R
Sampling rate : 48.0 kHz
Frame rate : 46.875 FPS (1024 SPF)
Compression mode : Lossy
Stream size : 160 MiB (8%)
Language : English

 

Audio
ID : 1
Format : AAC LC
Format/Info : Advanced Audio
Codec ID : mp4a-40-2
Duration : 2 h 56 min
Bit rate mode : Variable
Bit rate : 127 kb/s
Maximum bit rate : 393 kb/s
Channel(s) : 2 channels
Channel layout : L R
Sampling rate : 48.0 kHz
Frame rate : 46.875 FPS (1024 SPF)
Compression mode : Lossy
Stream size : 160 MiB (8%)
Language : English

Watch H2O No Pity

Audio
ID : 1
Format : AAC LC
Format/Info : Advanced Audio
Codec ID : mp4a-40-2
Duration : 2 h 56 min
Bit rate mode : Variable
Bit rate : 127 kb/s
Maximum bit rate : 393 kb/s
Channel(s) : 2 channels
Channel layout : L R
Sampling rate : 48.0 kHz
Frame rate : 46.875 FPS (1024 SPF)
Compression mode : Lossy
Stream size : 160 MiB (8%)
Language : English

Watch H2O No Pity

https://dx-tv.com/

You May Also Like

Leave a Reply

Your email address will not be published. Required fields are marked *

This site uses Akismet to reduce spam. Learn how your comment data is processed.