Watch Glory 76 Online 720p Full Show Free DX-TV

Watch Glory 76 Online 720p Full Show Free DX-TV

Watch Glory 76 Online

Watch Glory 76 Online

 

Download Links with premium High Speed   

 

 

dropapk.to

http://shrt10.com/9VhB6Z93

 

 

nitroflare.com

http://shrt10.com/fmAwx

 

 

rapidgator.net

http://shrt10.com/nD8sL

 

 

uploaded.net

http://shrt10.com/DyKyzS6q

 

 

uploadgig.com

http://shrt10.com/CahZJf

 

Watch online

 

Server 1

 

 

 

 

Watch Glory 76 Online

 

 

 

 

Server-2

 

 

 

 

watch now

 

 

Uploaded By Site DX-TV.com

 

 

 

[su_expand more_text=”Show More Info” less_text=”Close all Info” height=”50″ text_color=”#000000″ link_color=”#e25f8b” link_style=”button” more_icon=”icon: arrow-down” less_icon=”icon: arrow-up”]

Complete name : glory.76.720p.hdtv.x264-verum.mkv
Format : Matroska
Format version : Version 4
File size : 2.54 GiB
Duration : 2 h 24 min
Overall bit rate : 2 515 kb/s

Watch Glory 76 Online

Video
ID : 1
Format : AVC
Format/Info : Advanced Video
Codec ID : V_MPEG4/ISO/AVC
Duration : 2 h 24 min
Bit rate : 2 145 kb/s
Width : 1 280 pixels
Height : 720 pixels
Display aspect ratio : 16:9
Frame rate mode : Constant
Frame rate : 50.000 FPS
Color space : YUV
Chroma subsampling : 4:2:0
Bit depth : 8 bits
Scan type : Progressive
Bits/(Pixel*Frame) : 0.047
Stream size : 2.17 GiB (85%)
Default : Yes
Forced : No
Color range : Limited
Color primaries : BT.709
Transfer characteristics : BT.709
Matrix coefficients : BT.709

Watch Glory 76 Online

Audio
ID : 2
Format : MPEG Audio
version : Version 1
Format profile : Layer 2
Codec ID : A_MPEG/L2
Codec ID/Hint : MP2
Duration : 2 h 24 min
Bit rate mode : Constant
Bit rate : 320 kb/s
Channel(s) : 2 channels
Sampling rate : 48.0 kHz
Compression mode : Lossy
Delay relative to video : -120 ms
Stream size : 332 MiB (13%)
Language : English
Default : Yes
Forced : No

Watch Glory 76  

Format : AVC
Format/Info : Advanced Video
Codec ID : V_MPEG4/ISO/AVC
Duration : 2 h 24 min
Bit rate : 2 145 kb/s
Width : 1 280 pixels
Height : 720 pixels
Display aspect ratio : 16:9
Frame rate mode : Constant
Frame rate : 50.000 FPS
Color space : YUV
Chroma subsampling : 4:2:0
Bit depth : 8 bits
Scan type : Progressive
Bits/(Pixel*Frame) : 0.047
Stream size : 2.17 GiB (85%)
Default : Yes
Forced : No
Color range : Limited
Color primaries : BT.709
Transfer characteristics : BT.709
Matrix coefficients : BT.709

Watch Glory 76 Online

Audio
ID : 2
Format : MPEG Audio
version : Version 1
Format profile : Layer 2
Codec ID : A_MPEG/L2
Codec ID/Hint : MP2
Duration : 2 h 24 min
Bit rate mode : Constant
Bit rate : 320 kb/s
Channel(s) : 2 channels
Sampling rate : 48.0 kHz
Compression mode : Lossy
Delay relative to video : -120 ms
Stream size : 332 MiB (13%)
Language : English
Default : Yes
Forced : No

 Glory 76 Online

[/su_expand]

 

https://dx-tv.com/

You May Also Like

Leave a Reply

Your email address will not be published. Required fields are marked *

This site uses Akismet to reduce spam. Learn how your comment data is processed.